Welcome Guest ( Log In | Register )

> Releases Upload / Добавление релизов

Добавить релиз тут / Click here to add release
Рекомендованные обменники / Recommended file shares

> Meathook - Manipulating The Human Form [ep] (2022), Brutal Death Metal (D8)
post May 13 2022, 16:01:41
Post #1

Serial Uploader
Group Icon
Group: V.I.P
Posts: 38,607
Releases: 36751
From: Lithuania
On Forums: 14 years 3 weeks
Thanks: 456055 time(s)
Lithuania


(IMG:https://metalarea.org/images/audiocovers/2022_May/acov_tid364748_thumb.jpg)

*Artist: Meathook
*Album: Manipulating The Human Form [ep]
*Year: 2022
*Genre: Brutal Death Metal
*Country: United States (IMG:https://metalarea.org/forum/style_images/flags/United%20States.png)
*Format: mp3@VBR252kbps
*Size: 83MB

Tracklist:
01. Formless Entity 04:07
02. Among The Weakest Breath 04:19
03. Excruciating Methods 03:41
04. Manipulating The Human Form 04:19
05. Maggot Filled Resurrection 03:30
06. Amputated God (Bonus Track) 02:57
07. Worm Infested (Bonus Track) 04:05
08. Cryptic, Cosmic Disintegration (Bonus Track) 03:32
09. Bound, Gagged And Raped With A Knife (Bonus Track) 04:05
10. Realm Of Decay (Bonus Track) 03:24
11.Inflicted Torture (Bonus Track) 03:04
12. Prepare The Tools Of Torture (Bonus Track) 03:44
******************************
Total playing time: 44:47

(IMG:https://metalarea.org/images/myspace.png)



(IMG:https://metalarea.org/images/youtube.png)

Extended info
Scene CD-rip


Technical info
(IMG:https://metalarea.org/images/spectrogram/2022_May/4ed16177b10a7a1eed6e5a331170ae2a.png)
Input File: 02-meathook-among_the_weakest_breath.mp3
Channels : 2
Sample Rate : 44100
Precision : 16-bit
Duration : 00:04:18.23 = 11387767 samples = 19367 CDDA sectors
File Size : 9.06M
Bit Rate : 281k
Sample Encoding: MPEG audio (layer I, II or III)
Comments :
Title=Among the Weakest Breath
Artist=Meathook
Album=Manipulating the Human Form
Tracknumber=2
Year=2022
Genre=Death Metal
Discnumber=1



Register


Go to the top of the page
  Insert nick Quick quote
+Quote Post
 
Start new topic
Replies (1 - 1)
post May 15 2022, 10:22:01
Post #2

Мегаманьяк
***********
Group: Металариец
Posts: 1,711
Releases: 1
From: APATIN, SERBIA, АПАТИН, СЕРБИЯ
On Forums: 14 years 8 months
Thanks: 5018 time(s)



Flac

Register


Thanks:
Go to the top of the page
  Insert nick Quick quote
+Quote Post

Reply to this topicStart new topic
1 User(s) are reading this topic (1 Guests and 0 Anonymous Users)
0 Members:

 



- Lo-Fi Version Support form
Copyrights and abuse reports form
Time is now: 5th July 2022 - 07:36:29