Welcome Guest ( Log In | Register )

> Releases Upload / Добавление релизов

Добавить релиз тут / Click here to add release
Рекомендованные обменники / Recommended file shares

> The Faceless Hunter - One Minute To Midnight (2022), Melodic Death/Dark Metal
post May 13 2022, 16:17:13
Post #1

Правь статус, ####!111
**************
Group: Металариец
Posts: 29,672
Releases: 21826
From: Г.Харьков
On Forums: 10 years 1 month
Thanks: 452538 time(s)
Unknown


(IMG:https://metalarea.org/images/audiocovers/2022_May/acov_tid364749_thumb.jpg)

*Artist: The Faceless Hunter
*Album: One Minute To Midnight
*Year: 2022
*Genre: Melodic Death/Dark Metal
*Country: Russian Federation (IMG:https://metalarea.org/forum/style_images/flags/Russian%20Federation.png)
*Format: mp3@CBR320kbps
*Size: 209MB

Tracklist:
1. One Minute to Midnight 03:29
2. Dead Heaven 05:46
3. Sacred Blood 05:31
4. Voice Within 04:33
5. Shadows 03:11
6. Tragic Kingdom 04:58
7. Demons 06:34
8. The Ensign of Freedom 05:37
9. The Edge of Emptiness 05:39
10. Минута до Полуночи 03:29
11. Грань Пустоты 05:39
12. Мертвое Небо 05:46
13. Святая Кровь 05:27
14. Голос Сердца 04:33
15. Тени 03:10
16. Царствие Слез 04:58
17. Знамя Свободы 05:37
18. Демоны 06:34
******************************
Total playing time: 1:30:31




Extended info
Dmitry Shlutov Bass
Alexander Eshkinin Guitars
Denis Antokhin Guitars, Vocals
Elena Komlatskaya Keyboards
Vladislav Ermolaev Vocals (backing), Drums


Technical info
(IMG:https://metalarea.org/images/spectrogram/2022_May/b95576e17af238a00eea3aadc665d784.png)
Input File: 07 - Tragic Kingdom.mp3
Channels : 2
Sample Rate : 44100
Precision : 16-bit
Duration : 00:04:58.00 = 13141800 samples = 22350 CDDA sectors
File Size : 12.0M
Bit Rate : 323k
Sample Encoding: MPEG audio (layer I, II or III)
Comments :
Title=Tragic Kingdom
Artist=The Faceless Hunter
Album=One Minute to Midnight
Tracknumber=7
Year=2022-04-29
Genre=Metal
Discnumber=1



Register


Go to the top of the page
  Insert nick Quick quote
+Quote Post
 
Start new topic
Replies (1 - 1)
post May 14 2022, 04:10:33
Post #2

MDM-Thrash Metal
**************
Group: Металариец
Posts: 11,197
Releases: 1525
From: Одесса
On Forums: 14 years 10 months
Thanks: 36249 time(s)
Ukraine


(IMG:style_emoticons/default/22.gif) Капец, полтора часа такого дешевого примитивизма....
Go to the top of the page
  Insert nick Quick quote
+Quote Post

Reply to this topicStart new topic
1 User(s) are reading this topic (1 Guests and 0 Anonymous Users)
0 Members:

 



- Lo-Fi Version Support form
Copyrights and abuse reports form
Time is now: 5th July 2022 - 07:07:40