Welcome Guest ( Log In | Register )

 
Reply to this topicStart new topic
> Infiltration - Behind The Mask Of Terror [demo] (1991), Thrash Metal
post May 13 2022, 16:25:44
Post #1

Подвал
**************
Group: Металариец
Posts: 17,245
Releases: 9869
From: Far East (Khabarovsk)
On Forums: 13 years 4 months
Thanks: 113508 time(s)
Russian Federation


(IMG:http://metalarea.org/images/audiocovers/2022_May/acov_tid364750_thumb.JPG)

*Artist: Infiltration
*Album: Behind The Mask Of Terror [demo]
*Year: 1991
*Genre: Thrash Metal
*Country: Norway (IMG:http://metalarea.org/forum/style_images/flags/Norway.png)
*Format: mp3@CBR192kbps
*Size: 55MB

Tracklist:
1. Behind The Mask Of Terror 05:00
2. Die For My Sins 05:12
3. Let Me Out 04:50
4. Forgotten Children 06:49
5. Mystify 06:07
6. Two Men Enters, One Man Leaves (Live) 05:02
7. F.O.A.D. (Live Feb 89) 01:56
8. Desire - Raining Blood (Live Feb 89) 06:10
******************************
Total playing time: 41:06

Extended info
Recorded in May 1991.


Technical info
(IMG:http://metalarea.org/images/spectrogram/2022_May/fc23fff367b0e54fa1f3b9fb9754f056.png)
Input File: 06-Two Men Enters, One Man Leaves (Live).mp3
Channels : 2
Sample Rate : 44100
Precision : 16-bit
Duration : 00:05:02.77 = 13352289 samples = 22708 CDDA sectors
File Size : 7.27M
Bit Rate : 192k
Sample Encoding: MPEG audio (layer I, II or III)
Comments :
Title=Two Men Enters, One Man Leaves (Live)
Artist=Infiltration (Nor)
Album=Behind the Mask of Terror (Demo)
Tracknumber=06
Year=1991
Genre=Thrash Metal



Register


Go to the top of the page
  Insert nick Quick quote
+Quote Post

Reply to this topicStart new topic
1 User(s) are reading this topic (1 Guests and 0 Anonymous Users)
0 Members:

 



- Lo-Fi Version Support form
Copyrights and abuse reports form
Time is now: 29th May 2022 - 13:51:46