Welcome Guest ( Log In | Register )

> Releases Upload / Добавление релизов

Добавить релиз тут / Click here to add release
Рекомендованные обменники / Recommended file shares

> Atomization - Noitazimota (2022), Black Metal (D6)
post May 13 2022, 17:48:20
Post #1

Правь статус, ####!111
**************
Group: Металариец
Posts: 5,070
Releases: 4659
From: Одесса
On Forums: 13 years 11 months
Thanks: 53990 time(s)
Ukraine


(IMG:http://metalarea.org/images/audiocovers/2022_May/acov_tid364753_thumb.jpg)

*Artist: Atomization
*Album: Noitazimota
*Year: 2022
*Genre: Black Metal
*Country: Netherlands (IMG:http://metalarea.org/forum/style_images/flags/Netherlands.png)
*Format: mp3@CBR320kbps
*Size: 84MB

Tracklist:
1. Ashes to Ashes 00:59
2. Operation Gomorrah 04:06
3. No Cure for the Living 06:29
4. Nuclear Winter 05:46
5. Disintegration Into Oblivion 04:22
6. Radioactive Fallout 03:21
7. Noitazimota 07:51
8. Dust to Dust 02:16
******************************
Total playing time: 35:10



Extended info
Noitazimota is a Black Metal album dealing with subjects like (nuclear) war and a global pandemic.


Technical info
(IMG:http://metalarea.org/images/spectrogram/2022_May/0d384662d1c4054cf0e90290831b45de.png)
Input File: 05-atomization-disintegration_into_oblivion-67648e04.mp3
Channels : 2
Sample Rate : 44100
Precision : 16-bit
Duration : 00:04:22.23 = 11564519 samples = 19667.5 CDDA sectors
File Size : 10.5M
Bit Rate : 320k
Sample Encoding: MPEG audio (layer I, II or III)
Comments :
Title=Disintegration Into Oblivion
Artist=Atomization
Album=Noitazimota
Year=2022
Genre=138



Register


Go to the top of the page
  Insert nick Quick quote
+Quote Post
 
Start new topic
Replies (1 - 1)
post May 18 2022, 09:22:46
Post #2

Маньяк
**********
Group: Металариец
Posts: 1,153
Releases: 0
From: Новосибирск
On Forums: 12 years 8 months
Thanks: 319 time(s)
Russian Federation


ЦИТАТА
Noitazimota is a Black Metal album dealing with subjects like (nuclear) war and a global pandemic.


Но, надеюсь, одобрительно к этим "субъектам", а не осуждающе? А то знаем мы "подходы" таких современных горе-"блэк металлеров" (IMG:style_emoticons/default/1488.gif)
Go to the top of the page
  Insert nick Quick quote
+Quote Post

Reply to this topicStart new topic
2 User(s) are reading this topic (2 Guests and 0 Anonymous Users)
0 Members:

 



- Lo-Fi Version Support form
Copyrights and abuse reports form
Time is now: 22nd May 2022 - 14:04:36