Welcome Guest ( Log In | Register )

 
Reply to this topicStart new topic
> Demonochtets - Demo 2 [demo] (2022), Dungeon Synth/Raw Black Metal
post May 13 2022, 18:05:17
Post #1

Group: Дух
Posts: 2
Releases: 2
On Forums: 1 year 10 months
Thanks: 20 time(s)
Unknown


(IMG:https://metalarea.org/images/audiocovers/2022_May/acov_tid364754_thumb.png)

*Artist: Demonochtets
*Album: Demo 2 [demo]
*Year: 2022
*Genre: Dungeon Synth/Raw Black Metal
*Country: Moldova (IMG:https://metalarea.org/forum/style_images/flags/Moldova.png)
*Format: mp3@CBR320kbps
*Size: 32MB

Tracklist:
1. Untitled III 01:27
2. Untitled IV 02:37
3. Untitled V 03:02
4. Untitled VI 04:02
5. Into Infinite Obscurity (Dissection cover) 00:55
******************************
Total playing time: 12:03



Technical info
(IMG:https://metalarea.org/images/spectrogram/2022_May/2a9fc403763e0c32dd3475555012a847.png)
Input File: 03 - Untitled V.mp3
Channels : 2
Sample Rate : 44100
Precision : 16-bit
Duration : 00:03:03.08 = 8073652 samples = 13730.7 CDDA sectors
File Size : 7.57M
Bit Rate : 331k
Sample Encoding: MPEG audio (layer I, II or III)
Comments :
Title=Untitled V
Artist=Demonochtets
Album=Demo II
Tracknumber=3
Year=2022



Register


Go to the top of the page
  Insert nick Quick quote
+Quote Post

Reply to this topicStart new topic
2 User(s) are reading this topic (2 Guests and 0 Anonymous Users)
0 Members:

 



- Lo-Fi Version Support form
Copyrights and abuse reports form
Time is now: 15th August 2022 - 02:19:39