Welcome Guest ( Log In | Register )

> Releases Upload / Добавление релизов

Добавить релиз тут / Click here to add release
Рекомендованные обменники / Recommended file shares

> Gonemage - Master Of Disgust​.​.​. (2022), Experimental/Post-Black Metal/Chiptune
post May 13 2022, 18:11:57
Post #1

Правь статус, ####!111
**************
Group: Металариец
Posts: 5,097
Releases: 4684
From: Одесса
On Forums: 13 years 11 months
Thanks: 54448 time(s)
Ukraine


(IMG:http://metalarea.org/images/audiocovers/2022_May/acov_tid364755_thumb.png)

*Artist: Gonemage
*Album: Master Of Disgust​.​.​.
*Year: 2022
*Genre: Experimental/Post-Black Metal/Chiptune
*Country: United States (IMG:http://metalarea.org/forum/style_images/flags/United%20States.png)
*Format: mp3@CBR320kbps
*Size: 46MB

Tracklist:
1. Master of Disgust​.​.​. 04:20
2. Mega Toss Into Crypts 04:08
3. WarWare: Possessed Console 06:00
4. Demon Head and the Reign of Stench 03:33
5. Foul Portal to Delirium 01:19
******************************
Total playing time: 19:20



Technical info
(IMG:http://metalarea.org/images/spectrogram/2022_May/30b58dfab46246c242ffea85476e70fc.png)
Input File: 03. WarioWare Possessed Console.mp3
Channels : 2
Sample Rate : 44100
Precision : 16-bit
Duration : 00:06:01.06 = 15922790 samples = 27079.6 CDDA sectors
File Size : 14.4M
Bit Rate : 320k
Sample Encoding: MPEG audio (layer I, II or III)
Comments :
Title=WarioWare: Possessed Console
Artist=Gonemage
Album=Master of Disgust...
Tracknumber=3
Year=2022
Genre=Experimental | Post-Black Metal | Chiptune



Register


Go to the top of the page
  Insert nick Quick quote
+Quote Post
 
Start new topic
Replies (1 - 1)
post May 14 2022, 06:35:09
Post #2

Литр
*
Group: Подсевший
Posts: 51
Releases: 0
On Forums: 5 months 4 weeks
Thanks: 29 time(s)
Afghanistan


Последователи Xexyz?
Go to the top of the page
  Insert nick Quick quote
+Quote Post

Reply to this topicStart new topic
1 User(s) are reading this topic (1 Guests and 0 Anonymous Users)
0 Members:

 



- Lo-Fi Version Support form
Copyrights and abuse reports form
Time is now: 29th May 2022 - 12:45:54