Welcome Guest ( Log In | Register )

> Releases Upload / Добавление релизов

Добавить релиз тут / Click here to add release
Рекомендованные обменники / Recommended file shares

> Geste Futile - Damnatio Memoriae (2022), Black Metal
post May 13 2022, 18:17:49
Post #1

Правь статус, ####!111
**************
Group: Металариец
Posts: 29,275
Releases: 21491
From: Г.Харьков
On Forums: 10 years 1 week
Thanks: 443625 time(s)
Unknown


(IMG:https://metalarea.org/images/audiocovers/2022_May/acov_tid364756_thumb.jpg)

*Artist: Geste Futile
*Album: Damnatio Memoriae
*Year: 2022
*Genre: Black Metal
*Country: France (IMG:https://metalarea.org/forum/style_images/flags/France.png)
*Format: mp3@CBR320kbps
*Size: 116MB

Tracklist:
1. Shards 02:52
2. Hatred 07:39
3. Abyss 09:18
4. Purgatory 05:24
5. Escape 10:44
6. Void 14:24
******************************
Total playing time: 50:21



Extended info
Kraampus Unknown


Technical info
(IMG:https://metalarea.org/images/spectrogram/2022_May/5d712cf58443fdbbd355119fbceb7bd9.png)
Input File: Geste Futile - Damnatio Memoriae - 05 Escape.mp3
Channels : 2
Sample Rate : 44100
Precision : 16-bit
Duration : 00:10:44.24 = 28411028 samples = 48318.1 CDDA sectors
File Size : 25.9M
Bit Rate : 322k
Sample Encoding: MPEG audio (layer I, II or III)
Comments :
Title=Escape
Artist=Geste Futile
Album=Damnatio Memoriae
Tracknumber=5
Year=2022



Register


Go to the top of the page
  Insert nick Quick quote
+Quote Post
 
Start new topic
Replies (1 - 1)
post May 13 2022, 21:06:19
Post #2

I hate you all
**************
Group: Металариец
Posts: 2,928
Releases: 93
From: Ukraine
On Forums: 15 years 2 weeks
Thanks: 7468 time(s)
Ukraine


Go to the top of the page
  Insert nick Quick quote
+Quote Post

Reply to this topicStart new topic
2 User(s) are reading this topic (2 Guests and 0 Anonymous Users)
0 Members:

 



- Lo-Fi Version Support form
Copyrights and abuse reports form
Time is now: 22nd May 2022 - 14:43:48