Welcome Guest ( Log In | Register )

> Releases Upload / Добавление релизов

Добавить релиз тут / Click here to add release
Рекомендованные обменники / Recommended file shares

 
Reply to this topicStart new topic
> Planet Putrefyed - Planet Putrefyed [ep] (2022), Death Metal/Grindcore
post May 14 2022, 03:49:56
Post #1

Правь статус, ####!111
**************
Group: Металариец
Posts: 2,978
Releases: 1515
On Forums: 11 years 7 months
Thanks: 29798 time(s)
Russian Federation


(IMG:https://metalarea.org/images/audiocovers/2022_May/acov_tid364761_thumb.jpg)

*Artist: Planet Putrefyed
*Album: Planet Putrefyed [ep]
*Year: 2022
*Genre: Death Metal/Grindcore
*Country: United States (IMG:https://metalarea.org/forum/style_images/flags/United%20States.png)
*Format: mp3@CBR320kbps
*Size: 21MB

Tracklist:
1.Planet Putrefyed 01:00
2.Can't Stand the Sight of this Blindness 01:45
3.This Life Wasn't Meant to Be 01:44
4.Guided by the Moonlight, I Seek your Name 02:27
******************************
Total playing time: 6:56



Technical info
(IMG:https://metalarea.org/images/spectrogram/2022_May/2fd4cbe40579644e639bb5282676fcd6.png)
Input File: 02. Can\'t Stand the Sight of this Blindness.mp3
Channels : 2
Sample Rate : 44100
Precision : 16-bit
Duration : 00:01:45.28 = 4642936 samples = 7896.15 CDDA sectors
File Size : 4.61M
Bit Rate : 350k
Sample Encoding: MPEG audio (layer I, II or III)
Comments :
Title=Can't Stand the Sight of this Blindness
Artist=Planet Putrefyed
Album=Planet Putrefyed
Tracknumber=02
Year=2022
Genre=Death Metal/Grindcore



Register


Go to the top of the page
  Insert nick Quick quote
+Quote Post

Reply to this topicStart new topic
1 User(s) are reading this topic (1 Guests and 0 Anonymous Users)
0 Members:

 



- Lo-Fi Version Support form
Copyrights and abuse reports form
Time is now: 6th July 2022 - 07:26:49