Welcome Guest ( Log In | Register )

> Releases Upload / Добавление релизов

Добавить релиз тут / Click here to add release
Рекомендованные обменники / Recommended file shares

> Flesh Configuration - Adapt Swarm Planet [ep] (2022), Technical/Brutal Death Metal
post May 14 2022, 04:00:20
Post #1

Правь статус, ####!111
**************
Group: Металариец
Posts: 2,625
Releases: 1195
On Forums: 11 years 6 months
Thanks: 23605 time(s)
Russian Federation


(IMG:https://metalarea.org/images/audiocovers/2022_May/acov_tid364762_thumb.jpg)

*Artist: Flesh Configuration
*Album: Adapt Swarm Planet [ep]
*Year: 2022
*Genre: Technical/Brutal Death Metal
*Country: United States (IMG:https://metalarea.org/forum/style_images/flags/United%20States.png)
*Format: mp3@CBR320kbps
*Size: 46MB

Tracklist:
1.Revitalized Impurification 03:07
2.A Legacy of Violence 03:06
3.Infinite Despair 02:41
4.Cesspool Vortex Enigma 04:37
5.Hour of the Sleeper's Rebirth 04:13
6.Necrotic Spire 02:52
******************************
Total playing time: 20:36


(IMG:https://metalarea.org/images/youtube.png)

Technical info
(IMG:https://metalarea.org/images/spectrogram/2022_May/d315a5fd16e43fe69d51ef13774a103d.png)
Input File: 03 - Infinite Despair.mp3
Channels : 2
Sample Rate : 44100
Precision : 16-bit
Duration : 00:02:41.76 = 7133704 samples = 12132.1 CDDA sectors
File Size : 6.53M
Bit Rate : 323k
Sample Encoding: MPEG audio (layer I, II or III)
Comments :
Title=Infinite Despair
Artist=Flesh Configuration
Album=Adapt Swarm Planet
Tracknumber=03
Year=2022
Genre=Technical Brutal Death Metal



Register


Go to the top of the page
  Insert nick Quick quote
+Quote Post
 
Start new topic
Replies (1 - 1)
post May 15 2022, 10:16:59
Post #2

Мегаманьяк
***********
Group: Металариец
Posts: 1,615
Releases: 1
From: APATIN, SERBIA, АПАТИН, СЕРБИЯ
On Forums: 14 years 6 months
Thanks: 4588 time(s)



Flac

Register


Thanks:
Go to the top of the page
  Insert nick Quick quote
+Quote Post

Reply to this topicStart new topic
1 User(s) are reading this topic (1 Guests and 0 Anonymous Users)
0 Members:

 



- Lo-Fi Version Support form
Copyrights and abuse reports form
Time is now: 22nd May 2022 - 15:35:55