Welcome Guest ( Log In | Register )

> Releases Upload / Добавление релизов

Добавить релиз тут / Click here to add release
Рекомендованные обменники / Recommended file shares

> Nunslaughter & Blood - Nunslaughter & Blood [split] (2022), Old School Death Metal | Grindcore/Death Metal (D)(D)
post May 14 2022, 04:13:08
Post #1

Правь статус, ####!111
**************
Group: Металариец
Posts: 2,625
Releases: 1195
On Forums: 11 years 6 months
Thanks: 23599 time(s)
Russian Federation


(IMG:https://metalarea.org/images/audiocovers/2022_May/acov_tid364763_thumb.jpg)

*Artist: Nunslaughter & Blood
*Album: Nunslaughter & Blood [split]
*Year: 2022
*Genre: Old School Death Metal | Grindcore/Death Metal
*Country: United States (IMG:https://metalarea.org/forum/style_images/flags/United%20States.png) | Germany (IMG:https://metalarea.org/forum/style_images/flags/Germany.png)
*Format: mp3@CBR320kbps
*Size: 40MB

Tracklist:
Nunslaughter:
1.Free From Christ 03:19
2.This Cross Was Built for You 02:44
3.Leave Me in My Grave 02:46
Blood:
4.Imperator 02:16
5.Parasite 01:59
6.Be Doomed 01:15
7.Sadist 03:39
******************************
Total playing time: 17:58



Technical info
(IMG:https://metalarea.org/images/spectrogram/2022_May/db272b07fbe28adb3deda2b7f7ef82b1.png)
Input File: 03 - Leave Me in My Grave.mp3
Channels : 2
Sample Rate : 44100
Precision : 16-bit
Duration : 00:02:46.70 = 7351426 samples = 12502.4 CDDA sectors
File Size : 6.97M
Bit Rate : 335k
Sample Encoding: MPEG audio (layer I, II or III)
Comments :
Title=Leave Me in My Grave
Artist=Nunslaughter
Album=Split
Tracknumber=03
Year=2022
Genre=Old School Death Metal



Register


Go to the top of the page
  Insert nick Quick quote
+Quote Post
 
Start new topic
Replies (1 - 3)
post May 14 2022, 10:47:02
Post #2

Три Литра
***
Group: Завсегдатай
Posts: 234
Releases: 0
On Forums: 12 years 5 months
Thanks: 78 time(s)
Russian Federation


BLOOD - CVLT!
Рад, что они выпустили новый материал.
Go to the top of the page
  Insert nick Quick quote
+Quote Post
post May 14 2022, 11:49:05
Post #3

Правь статус, ####!111
**************
Group: Металариец
Posts: 50,651
Releases: 931
On Forums: 12 years 11 months
Thanks: 47365 time(s)
Russian Federation


Жду мнения spazm, он помница полюбляет оба коллектива.
Go to the top of the page
  Insert nick Quick quote
+Quote Post
post May 15 2022, 10:14:59
Post #4

Мегаманьяк
***********
Group: Металариец
Posts: 1,615
Releases: 1
From: APATIN, SERBIA, АПАТИН, СЕРБИЯ
On Forums: 14 years 6 months
Thanks: 4588 time(s)



Flac

Register


Thanks:
Go to the top of the page
  Insert nick Quick quote
+Quote Post

Reply to this topicStart new topic
2 User(s) are reading this topic (2 Guests and 0 Anonymous Users)
0 Members:

 



- Lo-Fi Version Support form
Copyrights and abuse reports form
Time is now: 22nd May 2022 - 15:14:11