Welcome Guest ( Log In | Register )

> Releases Upload / Добавление релизов

Добавить релиз тут / Click here to add release
Рекомендованные обменники / Recommended file shares

 
Reply to this topicStart new topic
> Hardun - Apokalypsis [ep] (2022), Blackened Death Metal
post May 14 2022, 04:29:11
Post #1

Правь статус, ####!111
**************
Group: Металариец
Posts: 2,625
Releases: 1195
On Forums: 11 years 6 months
Thanks: 23605 time(s)
Russian Federation


(IMG:https://metalarea.org/images/audiocovers/2022_May/acov_tid364764_thumb.jpg)

*Artist: Hardun
*Album: Apokalypsis [ep]
*Year: 2022
*Genre: Blackened Death Metal
*Country: Austria (IMG:https://metalarea.org/forum/style_images/flags/Austria.png)
*Format: mp3@CBR320kbps
*Size: 56MB

Tracklist:
01.Apokalypsis (Intro) 02:05
02.A Call of Absolution 04:12
03.Cosmic Overlord 04:07
04.Etamin 06:01
05.The Circle 04:19
06.Rise (Bonus Track) 04:21
******************************
Total playing time: 25:05

(IMG:https://metalarea.org/images/youtube.png)

Technical info
(IMG:https://metalarea.org/images/spectrogram/2022_May/8fc34afa05e4a4ddd50f6effddc901c0.png)
Input File: 02 - A Call of Absolution.mp3
Channels : 2
Sample Rate : 44100
Precision : 16-bit
Duration : 00:04:12.57 = 11138293 samples = 18942.7 CDDA sectors
File Size : 10.2M
Bit Rate : 324k
Sample Encoding: MPEG audio (layer I, II or III)
Comments :
Title=A Call of Absolution
Artist=Hardun
Album=Apokalypsis
Tracknumber=02
Year=2022
Genre=Symphonic Black/Death Metal



Register


Go to the top of the page
  Insert nick Quick quote
+Quote Post

Reply to this topicStart new topic
1 User(s) are reading this topic (1 Guests and 0 Anonymous Users)
0 Members:

 



- Lo-Fi Version Support form
Copyrights and abuse reports form
Time is now: 22nd May 2022 - 16:02:21