Welcome Guest ( Log In | Register )

> Releases Upload / Добавление релизов

Добавить релиз тут / Click here to add release
Рекомендованные обменники / Recommended file shares

> Collidor - Collidor (2022), Heavy Metal
post May 14 2022, 04:54:45
Post #1

Правь статус, ####!111
**************
Group: Металариец
Posts: 2,625
Releases: 1195
On Forums: 11 years 6 months
Thanks: 23595 time(s)
Russian Federation


(IMG:https://metalarea.org/images/audiocovers/2022_May/acov_tid364765_thumb.jpg)

*Artist: Collidor
*Album: Collidor
*Year: 2022
*Genre: Heavy Metal
*Country: Germany (IMG:https://metalarea.org/forum/style_images/flags/Germany.png)
*Format: mp3@CBR320kbps
*Size: 83MB

Tracklist:
1.Nephophobia 04:34
2.Hero of Destruction 02:35
3.Cryostorm 03:08
4.Doctor Death 03:01
5.False Gods 03:16
6.She 03:02
7.Last Stand 04:27
8.Decapitated Queen 04:36
9.Black Gold 02:44
10.Break Out 05:00
******************************
Total playing time: 36:23



Technical info
(IMG:https://metalarea.org/images/spectrogram/2022_May/034f35accb51bff2026e53ebe4bd73d2.png)
Input File: 02 - Hero Of Destruction.mp3
Channels : 2
Sample Rate : 44100
Precision : 16-bit
Duration : 00:02:35.07 = 6838763 samples = 11630.5 CDDA sectors
File Size : 6.30M
Bit Rate : 325k
Sample Encoding: MPEG audio (layer I, II or III)
Comments :
Title=Hero Of Destruction
Artist=Collidor
Album=Collidor
Tracknumber=02
Year=2022
Genre=Heavy Metal



Register


Go to the top of the page
  Insert nick Quick quote
+Quote Post
 
Start new topic
Replies (1 - 6)
post May 14 2022, 12:15:27
Post #2

Override the Overture
*******
Group: Металариец
Posts: 760
Releases: 0
From: Moscow
On Forums: 14 years 4 months
Thanks: 199 time(s)
Russian Federation


после Колидора ждем группу Тубарет, Ихний и Друшлаг


Go to the top of the page
  Insert nick Quick quote
+Quote Post
post May 14 2022, 12:49:36
Post #3

бутылка кефира полбатона
**********
Group: Металариец
Posts: 1,160
Releases: 0
From: Курганская обл., Шадринск
On Forums: 13 years 2 months
Thanks: 374 time(s)
Russian Federation


, а в нем rezetka
Go to the top of the page
  Insert nick Quick quote
+Quote Post
post May 14 2022, 16:37:00
Post #4

Шесть Литров
******
Group: Металариец
Posts: 629
Releases: 0
From: Беларусь,Минск
On Forums: 12 years 4 days
Thanks: 58 time(s)
Unknown


[b]Amadeus[Дуршлаг наверное
Go to the top of the page
  Insert nick Quick quote
+Quote Post
post May 14 2022, 17:24:12
Post #5

De Mysteriis Dom Sathanas
**************
Group: Металариец
Posts: 4,423
Releases: 64
From: Doom
On Forums: 13 years 10 months
Thanks: 3834 time(s)
Russian Federation


ЦИТАТА(MetalgeR @ May 14 2022, 18:37:00) *
[b]Amadeus[Дуршлаг наверное

А Тубарет и Ихний не напряг? (IMG:style_emoticons/default/1488.gif)


Thanks:
Go to the top of the page
  Insert nick Quick quote
+Quote Post
post May 15 2022, 06:44:19
Post #6

Шесть Литров
******
Group: Металариец
Posts: 555
Releases: 0
From: Ташкент
On Forums: 14 years 3 months
Thanks: 174 time(s)
Uzbekistan


Калинизация и Япон Мафонский ))
Go to the top of the page
  Insert nick Quick quote
+Quote Post
post May 16 2022, 08:14:01
Post #7

Group: Подсевший
Posts: 18
Releases: 0
On Forums: 3 years 2 weeks
Thanks: 4 time(s)
Russian Federation


каклета, сместитель и брутерброд
Go to the top of the page
  Insert nick Quick quote
+Quote Post

Reply to this topicStart new topic
1 User(s) are reading this topic (1 Guests and 0 Anonymous Users)
0 Members:

 



- Lo-Fi Version Support form
Copyrights and abuse reports form
Time is now: 22nd May 2022 - 14:08:06