Welcome Guest ( Log In | Register )

 
Reply to this topicStart new topic
> Chasin' Voorhees - Crystal Lake (2022), Death/Groove Metal
post May 14 2022, 05:07:43
Post #1

Правь статус, ####!111
**************
Group: Металариец
Posts: 3,200
Releases: 1709
On Forums: 11 years 8 months
Thanks: 33366 time(s)
Russian Federation


(IMG:https://metalarea.org/images/audiocovers/2022_May/acov_tid364766_thumb.jpg)

*Artist: Chasin' Voorhees
*Album: Crystal Lake
*Year: 2022
*Genre: Death/Groove Metal
*Country: United Kingdom (IMG:https://metalarea.org/forum/style_images/flags/United%20Kingdom.png)
*Format: mp3@CBR320kbps
*Size: 163MB

Tracklist:
1.Down Underneath 06:04
2.Packanack 07:40
3.Haven 05:04
4.Death Curse 04:40
5.Pinehurst 05:16
6.Kill or be Killed 06:25
7.Necromantic 05:44
8.Lazarus 06:04
9.Descendant 05:55
10.Grendel 06:00
11.Contra 05:41
12.Crystal Lake 06:15
13.Friday the 13th 01:35
******************************
Total playing time: 1:12:23



Technical info
(IMG:https://metalarea.org/images/spectrogram/2022_May/9286b7b037f7a284869c4429b9a69ae3.png)
Input File: 04 - Death Curse.mp3
Channels : 2
Sample Rate : 44100
Precision : 16-bit
Duration : 00:04:40.55 = 12372123 samples = 21041 CDDA sectors
File Size : 11.4M
Bit Rate : 324k
Sample Encoding: MPEG audio (layer I, II or III)
Comments :
Title=Death Curse
Artist=Chasin' Voorhees
Album=Crystal Lake
Tracknumber=04
Year=2022
Genre=Death Metal



Register


Go to the top of the page
  Insert nick Quick quote
+Quote Post
post May 17 2022, 08:24:30
Post #2

Мегаманьяк
***********
Group: Металариец
Posts: 1,737
Releases: 1
From: APATIN, SERBIA, АПАТИН, СЕРБИЯ
On Forums: 14 years 9 months
Thanks: 5171 time(s)



Flac

Register


Thanks:
Go to the top of the page
  Insert nick Quick quote
+Quote Post

Reply to this topicStart new topic
1 User(s) are reading this topic (1 Guests and 0 Anonymous Users)
0 Members:

 



- Lo-Fi Version Support form
Copyrights and abuse reports form
Time is now: 11th August 2022 - 06:50:51