Welcome Guest ( Log In | Register )

> Releases Upload / Добавление релизов

Добавить релиз тут / Click here to add release
Рекомендованные обменники / Recommended file shares

> In Twilight's Embrace - Lifeblood (2022), Melodic Black/Death Metal (D7)
post May 14 2022, 05:35:00
Post #1

Правь статус, ####!111
**************
Group: Металариец
Posts: 2,625
Releases: 1195
On Forums: 11 years 6 months
Thanks: 23595 time(s)
Russian Federation


(IMG:https://metalarea.org/images/audiocovers/2022_May/acov_tid364767_thumb.jpg)

*Artist: In Twilight's Embrace
*Album: Lifeblood
*Year: 2022
*Genre: Melodic Black/Death Metal
*Country: Poland (IMG:https://metalarea.org/forum/style_images/flags/Poland.png)
*Format: mp3@CBR320kbps
*Size: 109MB

Tracklist:
1.The Death Drive 08:58
2.Smoke and Mirrors 05:56
3.Lifeblood 05:56
4.Iskry 05:21
5.So Bleeds the Night 07:26
6.Sedation to Sedition 05:28
7.Te Deum 08:36
******************************
Total playing time: 47:41



Technical info
(IMG:https://metalarea.org/images/spectrogram/2022_May/2ff3c804857e840a90c0789903b28d6d.png)
Input File: 03. Lifeblood.mp3
Channels : 2
Sample Rate : 44100
Precision : 16-bit
Duration : 00:05:55.94 = 15696998 samples = 26695.6 CDDA sectors
File Size : 14.2M
Bit Rate : 320k
Sample Encoding: MPEG audio (layer I, II or III)
Comments :
Title=Lifeblood
Artist=In Twilight's Embrace
Album=Lifeblood
Tracknumber=03
Year=2022
Genre=Melodic Black/Death Metal



Register


Go to the top of the page
  Insert nick Quick quote
+Quote Post
 
Start new topic
Replies (1 - 6)
post May 14 2022, 08:32:22
Post #2

Мегаманьяк
***********
Group: Металариец
Posts: 1,585
Releases: 0
From: Russian Federation - St.Petersburg
On Forums: 13 years 2 months
Thanks: 442 time(s)
Russian Federation


Очень неплохо! (IMG:style_emoticons/default/h27001.gif)


Thanks:
(1) WOLAND,
Go to the top of the page
  Insert nick Quick quote
+Quote Post
post May 14 2022, 20:53:18
Post #3

Группа: esoteric V.I.P
**************
Group: Металариец
Posts: 2,366
Releases: 0
From: Культград
On Forums: 7 years 10 months
Thanks: 1063 time(s)
Unknown


Вот это подарок на выхлопные, (IMG:style_emoticons/default/20.gif) я панимайюу...
Все альбомы классные у них. (IMG:style_emoticons/default/metaler.gif)


Thanks:
Go to the top of the page
  Insert nick Quick quote
+Quote Post
post May 14 2022, 21:01:12
Post #4

Правь статус, ####!111
**************
Group: Металариец
Posts: 50,651
Releases: 931
On Forums: 12 years 11 months
Thanks: 47365 time(s)
Russian Federation


ЦИТАТА(WOLAND @ May 14 2022, 22:53:18) *
выхлопные,


(IMG:style_emoticons/default/15.gif)


Thanks:
(1) WOLAND,
Go to the top of the page
  Insert nick Quick quote
+Quote Post
post May 14 2022, 21:05:50
Post #5

Группа: esoteric V.I.P
**************
Group: Металариец
Posts: 2,366
Releases: 0
From: Культград
On Forums: 7 years 10 months
Thanks: 1063 time(s)
Unknown


Все по режиму спортивной недели. Теперь два дня спиртболла - проспиртовать мышцы-квадрицепсы. (IMG:style_emoticons/default/alkash.gif)
Go to the top of the page
  Insert nick Quick quote
+Quote Post
post May 18 2022, 10:47:35
Post #6

Два Литра
**
Group: Завсегдатай
Posts: 137
Releases: 0
On Forums: 11 years 11 months
Thanks: 89 time(s)
Russian Federation


А что со звуком ?? Или только у меня какая то всратая каша звучит?
Go to the top of the page
  Insert nick Quick quote
+Quote Post
post May 18 2022, 13:09:30
Post #7

Группа: esoteric V.I.P
**************
Group: Металариец
Posts: 2,366
Releases: 0
From: Культград
On Forums: 7 years 10 months
Thanks: 1063 time(s)
Unknown


Только у тебя.


Thanks:
Go to the top of the page
  Insert nick Quick quote
+Quote Post

Reply to this topicStart new topic
1 User(s) are reading this topic (1 Guests and 0 Anonymous Users)
0 Members:

 



- Lo-Fi Version Support form
Copyrights and abuse reports form
Time is now: 22nd May 2022 - 14:34:54