Welcome Guest ( Log In | Register )

> Releases Upload / Добавление релизов

Добавить релиз тут / Click here to add release
Рекомендованные обменники / Recommended file shares

> Heldenasche - Der Abgesang (2022), Black Metal
post May 14 2022, 06:06:05
Post #1

Правь статус, ####!111
**************
Group: Металариец
Posts: 2,473
Releases: 2008
From: Praha
On Forums: 8 years 1 month
Thanks: 54560 time(s)
Czech Republic


(IMG:http://metalarea.org/images/audiocovers/2022_May/acov_tid364769_thumb.jpg)

*Artist: Heldenasche
*Album: Der Abgesang
*Year: 2022
*Genre: Black Metal
*Country: Germany (IMG:http://metalarea.org/forum/style_images/flags/Germany.png)
*Format: mp3@CBR320kbps
*Size: 115MB

Tracklist:
1. Der Abgesang 10:01
2. Unter der Asche 07:26
3. Die Fahne weht noch immer 05:28
4. Empor aus der Asche 08:32
5. Under the Black Sun 07:04
6. Permafrost (Absurd cover) 04:21
7. Revolution 03:38
8. Armageddon 03:36
******************************
Total playing time: 50:06

Extended info
Hammerbund - HBCD2022
7-8 tracks - demo "Spirit" on CD.


Technical info
(IMG:http://metalarea.org/images/spectrogram/2022_May/48719346fcfad388496e3917d84d445c.png)
Input File: 04. Empor Aus Der Asche.mp3
Channels : 2
Sample Rate : 44100
Precision : 16-bit
Duration : 00:08:32.35 = 22594415 samples = 38425.9 CDDA sectors
File Size : 20.5M
Bit Rate : 320k
Sample Encoding: MPEG audio (layer I, II or III)
Comments :
Title=Empor Aus Der Asche
Artist=Heldenasche
Album=Der Abgesang
Tracknumber=04/08
Year=2022
Genre=Black Metal



Register


Go to the top of the page
  Insert nick Quick quote
+Quote Post
 
Start new topic
Replies (1 - 5)
post May 14 2022, 07:53:27
Post #2

I hate you all
**************
Group: Металариец
Posts: 2,928
Releases: 93
From: Ukraine
On Forums: 15 years 2 weeks
Thanks: 7468 time(s)
Ukraine


Go to the top of the page
  Insert nick Quick quote
+Quote Post
post May 14 2022, 08:21:06
Post #3

Group: Подсевший
Posts: 24
Releases: 0
On Forums: 11 years 6 months
Thanks: 13 time(s)
Germany


Another faceless copycat. Damn, how I miss the times when germany had fantastic Black Metal bands like Lunar Aurora, Nagelfar, and others.
Go to the top of the page
  Insert nick Quick quote
+Quote Post
post May 14 2022, 09:33:38
Post #4

I love Sushi
*******
Group: Металариец
Posts: 731
Releases: 0
From: Vienna
On Forums: 12 years 10 months
Thanks: 195 time(s)
Austria


ЦИТАТА(Mach1naePerson4 @ May 14 2022, 09:21:06) *
Another faceless copycat. Damn, how I miss the times when germany had fantastic Black Metal bands like Lunar Aurora, Nagelfar, and others.


Checkout the Band called Friisk


Thanks:
Go to the top of the page
  Insert nick Quick quote
+Quote Post
post May 14 2022, 18:29:43
Post #5

Пять Литров
*****
Group: Металариец
Posts: 438
Releases: 18
On Forums: 8 years 8 months
Thanks: 774 time(s)
Iceland


QUOTE(Mach1naePerson4 @ May 14 2022, 09:21:06) *
Another faceless copycat. Damn, how I miss the times when germany had fantastic Black Metal bands like Lunar Aurora, Nagelfar, and others.


How ridiculous to compare a nazi band like this here (don't start complaining, Hammerbund is a well known nazi label) with bands like you named. What comes next, comparing Mystic Circle with Nordreich? (IMG:style_emoticons/default/15.gif)


Thanks:
Go to the top of the page
  Insert nick Quick quote
+Quote Post
post May 16 2022, 20:40:19
Post #6

Group: Подсевший
Posts: 24
Releases: 0
On Forums: 11 years 6 months
Thanks: 13 time(s)
Germany


QUOTE(Kvlt @ May 14 2022, 19:29:43) *
How ridiculous to compare a nazi band like this here (don't start complaining, Hammerbund is a well known nazi label) with bands like you named. What comes next, comparing Mystic Circle with Nordreich? (IMG:style_emoticons/default/15.gif)


Yeah, it's actually quite ridiculous that a scene that had greats like aforementioned bands gets flooded by third-class black metal bands who're probably just existing for the sake of promoting their clownish ideology.
Go to the top of the page
  Insert nick Quick quote
+Quote Post

Reply to this topicStart new topic
1 User(s) are reading this topic (1 Guests and 0 Anonymous Users)
0 Members:

 



- Lo-Fi Version Support form
Copyrights and abuse reports form
Time is now: 22nd May 2022 - 14:57:23