Welcome Guest ( Log In | Register )

> Releases Upload / Добавление релизов

Добавить релиз тут / Click here to add release
Рекомендованные обменники / Recommended file shares

> Purveyor - Ruminations (2022), Death Metal
post May 14 2022, 06:42:39
Post #1

Правь статус, ####!111
**************
Group: Металариец
Posts: 2,625
Releases: 1195
On Forums: 11 years 6 months
Thanks: 23595 time(s)
Russian Federation


(IMG:https://metalarea.org/images/audiocovers/2022_May/acov_tid364771_thumb.jpg)

*Artist: Purveyor
*Album: Ruminations
*Year: 2022
*Genre: Death Metal
*Country: United States (IMG:https://metalarea.org/forum/style_images/flags/United%20States.png)
*Format: mp3@CBR320kbps
*Size: 69MB

Tracklist:
01.Bowser 02:13
02.It's Got a Death Curse 04:15
03.Black Holes 05:10
04.Leviathan 04:33
05.I Am You 04:11
06.Mimic 04:02
07.The Summoning 06:52
******************************
Total playing time: 31:16

(IMG:https://metalarea.org/images/youtube.png)

Technical info
(IMG:https://metalarea.org/images/spectrogram/2022_May/8dda6905002875bc2b1e6dadd11f2d4b.png)
Input File: 04 - Leviathan.mp3
Channels : 2
Sample Rate : 44100
Precision : 16-bit
Duration : 00:04:33.96 = 12081812 samples = 20547.3 CDDA sectors
File Size : 11.2M
Bit Rate : 326k
Sample Encoding: MPEG audio (layer I, II or III)
Comments :
Title=Leviathan
Artist=Purveyor
Album=Ruminations
Tracknumber=04
Year=2022
Genre=Death Metal



Register


Go to the top of the page
  Insert nick Quick quote
+Quote Post
 
Start new topic
Replies (1 - 2)
post May 14 2022, 07:38:11
Post #2

hearer & reader
**************
Group: Металариец
Posts: 10,281
Releases: 211
From: Moscow
On Forums: 14 years 8 months
Thanks: 12380 time(s)
Russian Federation


Register


Thanks:
Go to the top of the page
  Insert nick Quick quote
+Quote Post
post May 15 2022, 19:14:19
Post #3

MDM-Thrash Metal
**************
Group: Металариец
Posts: 11,074
Releases: 1471
From: Одесса
On Forums: 14 years 9 months
Thanks: 35139 time(s)
Ukraine


Go to the top of the page
  Insert nick Quick quote
+Quote Post

Reply to this topicStart new topic
1 User(s) are reading this topic (1 Guests and 0 Anonymous Users)
0 Members:

 



- Lo-Fi Version Support form
Copyrights and abuse reports form
Time is now: 22nd May 2022 - 14:26:15