Welcome Guest ( Log In | Register )

> Axeheart - Through The Seas And Time (2022), Viking/Heavy Metal
post May 14 2022, 07:16:29
Post #1

Правь статус, ####!111
**************
Group: Металариец
Posts: 3,237
Releases: 1744
On Forums: 11 years 8 months
Thanks: 33902 time(s)
Russian Federation


(IMG:https://metalarea.org/images/audiocovers/2022_May/acov_tid364772_thumb.jpg)

*Artist: Axeheart
*Album: Through The Seas And Time
*Year: 2022
*Genre: Viking/Heavy Metal
*Country: Canada (IMG:https://metalarea.org/forum/style_images/flags/Canada.png)
*Format: mp3@CBR320kbps
*Size: 134MB

Tracklist:
01.The Blackest Heart 03:28
02.Through the Seas and Time 03:37
03.Save Us Odin 03:50
04.The Darkest Night 04:01
05.Walk This Path 02:42
06.Fight and Die 04:24
07.Veritas 06:20
08.Eye for an Eye 04:57
09.Together 04:41
10.Beast in Black 03:08
11.Rocky Mountain Vikings 03:45
12.From the Ashes 04:30
13.Sail Across the Sea 05:33
14.Rise Again 03:19
******************************
Total playing time: 58:15

Technical info
(IMG:https://metalarea.org/images/spectrogram/2022_May/fa7ed997c6a1d54aedceb8afca25ebef.png)
Input File: 03 - Save Us Odin.mp3
Channels : 2
Sample Rate : 44100
Precision : 16-bit
Duration : 00:03:50.08 = 10146352 samples = 17255.7 CDDA sectors
File Size : 9.42M
Bit Rate : 327k
Sample Encoding: MPEG audio (layer I, II or III)
Comments :
Title=Save Us Odin
Artist=Axeheart
Album=Through The Seas And Time
Tracknumber=03
Year=2022
Genre=Viking Heavy Metal



Register


Go to the top of the page
  Insert nick Quick quote
+Quote Post
 
Start new topic
Replies (1 - 3)
post May 14 2022, 21:29:27
Post #2

hearer & reader
**************
Group: Металариец
Posts: 10,321
Releases: 211
From: Moscow
On Forums: 14 years 11 months
Thanks: 12588 time(s)
Russian Federation



Весёленький Melodic Heavy/Power. Viking разве что в тематике.


Thanks:
(1) Andrew,
Go to the top of the page
  Insert nick Quick quote
+Quote Post
post May 15 2022, 19:17:42
Post #3

MDM-Thrash Metal
**************
Group: Металариец
Posts: 11,328
Releases: 1571
From: Одесса
On Forums: 15 years 1 week
Thanks: 37035 time(s)
Ukraine




Go to the top of the page
  Insert nick Quick quote
+Quote Post
post May 16 2022, 08:33:06
Post #4

Добрый язычник
**********
Group: Металариец
Posts: 1,006
Releases: 11
From: Санкт-Петербург
On Forums: 16 years 8 months
Thanks: 325 time(s)
Russian Federation


Странный и невнятный альбом, как будто каждую песню разные группы исполняли.
Go to the top of the page
  Insert nick Quick quote
+Quote Post

Reply to this topicStart new topic
1 User(s) are reading this topic (1 Guests and 0 Anonymous Users)
0 Members:

 



- Lo-Fi Version Support form
Copyrights and abuse reports form
Time is now: 17th August 2022 - 10:44:02