Welcome Guest ( Log In | Register )

> Releases Upload / Добавление релизов

Добавить релиз тут / Click here to add release
Рекомендованные обменники / Recommended file shares

 
Reply to this topicStart new topic
> Chasm Shroud - Manna From Heaven (2022), Black/Death Metal
post May 14 2022, 07:49:40
Post #1

Absorbence
**************
Group: Металариец
Posts: 2,097
Releases: 394
From: Vastland Abyss of Cthulhu
On Forums: 15 years 7 months
Thanks: 6727 time(s)
United States


(IMG:https://metalarea.org/images/audiocovers/2022_May/acov_tid364773_thumb.jpg)

*Artist: Chasm Shroud
*Album: Manna From Heaven
*Year: 2022
*Genre: Black/Death Metal
*Country: United States (IMG:https://metalarea.org/forum/style_images/flags/United%20States.png)
*Format: mp3@CBR320kbps
*Size: 90MB

Tracklist:
1. Astral Projections to the Kingdom of Sheol 09:27
2. Crypt of the Worthless One 10:17
3. Invocations in Mud and Bondage 08:55
4. Manna from Heaven 10:51
******************************
Total playing time: 39:30





Technical info
(IMG:https://metalarea.org/images/spectrogram/2022_May/45a106c79b54ad105adb10d71b7d0b60.png)
Input File: 01. Chasm Shroud - Astral Projections to the Kingdom of Sheol.mp3
Channels : 2
Sample Rate : 44100
Precision : 16-bit
Duration : 00:09:27.44 = 25024280 samples = 42558.3 CDDA sectors
File Size : 22.7M
Bit Rate : 320k
Sample Encoding: MPEG audio (layer I, II or III)
Comments :
Title=Astral Projections to the Kingdom of Sheol
Artist=Chasm Shroud
Album=Manna from Heaven
Tracknumber=01
Year=2022
Genre=Black/Death Metal



Register


Go to the top of the page
  Insert nick Quick quote
+Quote Post

Reply to this topicStart new topic
1 User(s) are reading this topic (1 Guests and 0 Anonymous Users)
0 Members:

 



- Lo-Fi Version Support form
Copyrights and abuse reports form
Time is now: 5th July 2022 - 22:16:03