Welcome Guest ( Log In | Register )

> Releases Upload / Добавление релизов

Добавить релиз тут / Click here to add release
Рекомендованные обменники / Recommended file shares

> Atonement - Where The Light Is Devouring By Darkness (2022), Death/Black Metal (D5)
post May 14 2022, 07:53:15
Post #1

Правь статус, ####!111
**************
Group: Металариец
Posts: 2,625
Releases: 1195
On Forums: 11 years 6 months
Thanks: 23596 time(s)
Russian Federation


(IMG:https://metalarea.org/images/audiocovers/2022_May/acov_tid364774_thumb.jpg)

*Artist: Atonement
*Album: Where The Light Is Devouring By Darkness
*Year: 2022
*Genre: Death/Black Metal
*Country: Poland (IMG:https://metalarea.org/forum/style_images/flags/Poland.png)
*Format: mp3@CBR320kbps
*Size: 73MB

Tracklist:
1.The Beginning of Ritual 01:29
2.Mirdautas Vras 04:21
3.Mor Gash 04:37
4.Ushur Daihir 03:17
5.Bells of Doom 04:51
6.The Choir Of The Undead 04:32
7.Chalice Of Misterious Whispers 04:16
8.Don't Follow The Lights 03:01
9.The End Of Hope 01:16
******************************
Total playing time: 31:40



Technical info
(IMG:https://metalarea.org/images/spectrogram/2022_May/817db2a454ca9f28f43e5b34be9b2090.png)
Input File: 04 - Ushur Daihir.mp3
Channels : 2
Sample Rate : 44100
Precision : 16-bit
Duration : 00:03:17.47 = 8708559 samples = 14810.5 CDDA sectors
File Size : 8.35M
Bit Rate : 338k
Sample Encoding: MPEG audio (layer I, II or III)
Comments :
Title=Ushur Daihir
Artist=Atonement
Album=Where the Light Is Devouring by Darkness
Tracknumber=04
Year=2022
Genre=Black/Death Metal



Register


Go to the top of the page
  Insert nick Quick quote
+Quote Post
 
Start new topic
Replies (1 - 1)
post Yesterday, 14:11:37
Post #2

Old School Metal
**************
Group: Металариец
Posts: 4,380
Releases: 0
From: г. Минск
On Forums: 13 years 2 months
Thanks: 11224 time(s)
Belarus


Lossless: FLAC (tracks)
Register
Go to the top of the page
  Insert nick Quick quote
+Quote Post

Reply to this topicStart new topic
1 User(s) are reading this topic (1 Guests and 0 Anonymous Users)
0 Members:

 



- Lo-Fi Version Support form
Copyrights and abuse reports form
Time is now: 22nd May 2022 - 15:03:20