Welcome Guest ( Log In | Register )

> Releases Upload / Добавление релизов

Добавить релиз тут / Click here to add release
Рекомендованные обменники / Recommended file shares

 
Reply to this topicStart new topic
> Møremyrk - MMXXII Demos [demo] (2022), Death Metal
post May 14 2022, 08:04:32
Post #1

Absorbence
**************
Group: Металариец
Posts: 2,097
Releases: 394
From: Vastland Abyss of Cthulhu
On Forums: 15 years 7 months
Thanks: 6704 time(s)
United States


(IMG:https://metalarea.org/images/audiocovers/2022_May/acov_tid364775_thumb.jpg)

*Artist: Møremyrk
*Album: MMXXII Demos [demo]
*Year: 2022
*Genre: Death Metal
*Country: Indonesia (IMG:https://metalarea.org/forum/style_images/flags/Indonesia.png)
*Format: mp3@CBR320kbps
*Size: 41MB

Tracklist:
1. Void Serenity 06:21
2. Ethereal Light of Corrupted Realm 05:24
3. Fumus Swamps 06:10
******************************
Total playing time: 17:55



Technical info
(IMG:https://metalarea.org/images/spectrogram/2022_May/5d8f0e8ed2ee96ea67956d21689d215f.png)
Input File: 02. Fumus Swamps.mp3
Channels : 2
Sample Rate : 48000
Precision : 16-bit
Duration : 00:06:08.02 = 17664912 samples ~ 27601.4 CDDA sectors
File Size : 14.7M
Bit Rate : 320k
Sample Encoding: MPEG audio (layer I, II or III)
Comments :
Title=Fumus Swamps
Artist=Møremyrk
Album=MMXXII Demos
Tracknumber=02/03
Year=2022
Genre=22



Register


Go to the top of the page
  Insert nick Quick quote
+Quote Post

Reply to this topicStart new topic
1 User(s) are reading this topic (1 Guests and 0 Anonymous Users)
0 Members:

 



- Lo-Fi Version Support form
Copyrights and abuse reports form
Time is now: 5th July 2022 - 07:35:50