Welcome Guest ( Log In | Register )

> Releases Upload / Добавление релизов

Добавить релиз тут / Click here to add release
Рекомендованные обменники / Recommended file shares

 
Reply to this topicStart new topic
> Iron Flames - Obsidian Cromlech Procreation [demo] (2021), Black/Death Metal
post May 14 2022, 08:18:13
Post #1

Absorbence
**************
Group: Металариец
Posts: 2,090
Releases: 388
From: Vastland Abyss of Cthulhu
On Forums: 15 years 7 months
Thanks: 6684 time(s)
United States


(IMG:https://metalarea.org/images/audiocovers/2022_May/acov_tid364776_thumb.jpg)

*Artist: Iron Flames
*Album: Obsidian Cromlech Procreation [demo]
*Year: 2021
*Genre: Black/Death Metal
*Country: Italy (IMG:https://metalarea.org/forum/style_images/flags/Italy.png)
*Format: mp3@CBR320kbps
*Size: 27MB

Tracklist:
1. Timeforce Chaos 03:44
2. Obsidian Cromlech Procreation 08:20
******************************
Total playing time: 12:04



Technical info
(IMG:https://metalarea.org/images/spectrogram/2022_May/52651e62ad34d7753b2c6e7000df9e57.png)
Input File: 02. Obsidian Cromlech Procreation.mp3
Channels : 2
Sample Rate : 48000
Precision : 16-bit
Duration : 00:08:20.04 = 24002064 samples ~ 37503.2 CDDA sectors
File Size : 20.0M
Bit Rate : 320k
Sample Encoding: MPEG audio (layer I, II or III)
Comments :
Title=Obsidian Cromlech Procreation
Artist=Iron Flames
Album=Obsidian Cromlech Procreation
Tracknumber=02/02
Year=2021
Genre=Black/Death Metal



Register


Go to the top of the page
  Insert nick Quick quote
+Quote Post

Reply to this topicStart new topic
1 User(s) are reading this topic (1 Guests and 0 Anonymous Users)
0 Members:

 



- Lo-Fi Version Support form
Copyrights and abuse reports form
Time is now: 3rd July 2022 - 19:44:23