Welcome Guest ( Log In | Register )

> Releases Upload / Добавление релизов

Добавить релиз тут / Click here to add release
Рекомендованные обменники / Recommended file shares

 
Reply to this topicStart new topic
> Genocidal Impalament - Portador De Flamas Funerarias [compilation] (2022), Black/Death Metal
post May 14 2022, 08:24:37
Post #1

Absorbence
**************
Group: Металариец
Posts: 2,023
Releases: 338
From: Vastland Abyss of Cthulhu
On Forums: 15 years 6 months
Thanks: 5745 time(s)
United States


(IMG:https://metalarea.org/images/audiocovers/2022_May/acov_tid364777_thumb.jpg)

*Artist: Genocidal Impalament
*Album: Portador De Flamas Funerarias [compilation]
*Year: 2022
*Genre: Black/Death Metal
*Country: Chile (IMG:https://metalarea.org/forum/style_images/flags/Chile.png)
*Format: mp3@CBR320kbps
*Size: 31MB

Tracklist:
1. Genocidio Universal 01:55
2. Herética Persecución 02:03
3. Asterión 01:20
4. Parálisis Sensorial 01:52
5. Extinción Del Dogma 02:19
6. En Penumbras 01:44
7. Descendiendo 01:17
8. Alcohol 01:24
******************************
Total playing time: 13:54



Technical info
(IMG:https://metalarea.org/images/spectrogram/2022_May/d99beb66ada24cad6eb2f0af022393e1.png)
Input File: 03. Genocidal Impalament - Asterión.mp3
Channels : 2
Sample Rate : 44100
Precision : 16-bit
Duration : 00:01:20.04 = 3529896 samples = 6003.22 CDDA sectors
File Size : 3.21M
Bit Rate : 320k
Sample Encoding: MPEG audio (layer I, II or III)
Comments :
Title=Asterión
Artist=Genocidal Impalament
Album=Portador de Flamas Funerarias
Tracknumber=03/08
Year=2022
Genre=Black/Death Metal



Register


Go to the top of the page
  Insert nick Quick quote
+Quote Post

Reply to this topicStart new topic
1 User(s) are reading this topic (1 Guests and 0 Anonymous Users)
0 Members:

 



- Lo-Fi Version Support form
Copyrights and abuse reports form
Time is now: 22nd May 2022 - 15:44:04