Welcome Guest ( Log In | Register )

> Releases Upload / Добавление релизов

Добавить релиз тут / Click here to add release
Рекомендованные обменники / Recommended file shares

> Old Coven - Mysteries Of The Dark Occult [ep] (2022), Black/Thrash Metal (D4)
post May 14 2022, 08:41:04
Post #1

Absorbence
**************
Group: Металариец
Posts: 2,097
Releases: 394
From: Vastland Abyss of Cthulhu
On Forums: 15 years 7 months
Thanks: 6727 time(s)
United States


(IMG:https://metalarea.org/images/audiocovers/2022_May/acov_tid364778_thumb.jpg)

*Artist: Old Coven
*Album: Mysteries Of The Dark Occult [ep]
*Year: 2022
*Genre: Black/Thrash Metal
*Country: United States (IMG:https://metalarea.org/forum/style_images/flags/United%20States.png)
*Format: mp3@CBR320kbps
*Size: 34MB

Tracklist:
1. Reborn in Rotting Flesh 05:26
2. Black Candles Burning 05:54
3. Unholy Mayhem 03:34
******************************
Total playing time: 14:54



Technical info
(IMG:https://metalarea.org/images/spectrogram/2022_May/cb526ca6d670746eaecd1e11efad47f2.png)
Input File: 02. Reborn in Rotting Flesh.mp3
Channels : 2
Sample Rate : 48000
Precision : 16-bit
Duration : 00:05:26.07 = 15651216 samples ~ 24455 CDDA sectors
File Size : 13.0M
Bit Rate : 320k
Sample Encoding: MPEG audio (layer I, II or III)
Comments :
Title=Reborn in Rotting Flesh
Artist=Old Coven
Album=Mysteries of the Dark Occult
Tracknumber=02/03
Year=2022
Genre=Black/Thrash Metal



Register


Go to the top of the page
  Insert nick Quick quote
+Quote Post
 
Start new topic
Replies (1 - 1)
post May 24 2022, 13:06:05
Post #2

добрый мизантроп
**************
Group: Металариец
Posts: 3,015
Releases: 1
From: Менск
On Forums: 11 years 7 months
Thanks: 1337 time(s)
Madagascar


Enjoyable Black/Thrash Metal
Go to the top of the page
  Insert nick Quick quote
+Quote Post

Reply to this topicStart new topic
2 User(s) are reading this topic (2 Guests and 0 Anonymous Users)
0 Members:

 



- Lo-Fi Version Support form
Copyrights and abuse reports form
Time is now: 5th July 2022 - 22:16:48