Welcome Guest ( Log In | Register )

> Graveland & Commander Agares - Awakening Of The Storms [split] (2022), Pagan/Viking Metal | Black Metal/Ambient (D)
post May 14 2022, 09:23:59
Post #1

funeral doom fan
Group Icon
Group: S-moderation team
Posts: 5,416
Releases: 3068
From: Ростов-на-Дону
On Forums: 16 years 7 months
Thanks: 59203 time(s)
Russian Federation


(IMG:http://metalarea.org/images/audiocovers/2022_May/acov_tid364779_thumb.jpg)

*Artist: Graveland & Commander Agares
*Album: Awakening Of The Storms [split]
*Year: 2022
*Genre: Pagan/Viking Metal | Black Metal/Ambient
*Country: Poland (IMG:http://metalarea.org/forum/style_images/flags/Poland.png) | Finland (IMG:http://metalarea.org/forum/style_images/flags/Finland.png)
*Format: mp3@CBR320kbps
*Size: 104MB

Tracklist:
Graveland:
1. At the Shore Bathed by Blood 06:50
2. Lords of the Polar Night 05:31
3. Amber Lantern 07:19
4. Possessed by Steel 06:07
Commander Agares:
5. Where We are Crowned as King 05:41
6. Dawn of a New Morning 06:57
7. Rising Flames of Revelation 07:10
******************************
Total playing time: 45:35

(IMG:http://metalarea.org/images/youtube.png)

Technical info
(IMG:http://metalarea.org/images/spectrogram/2022_May/71f643cb34b21f9916377c48c584b240.png)
Input File: 05 - Commander Agares - Where We Are Crowned As King.mp3
Channels : 2
Sample Rate : 44100
Precision : 16-bit
Duration : 00:05:41.32 = 15052388 samples = 25599.3 CDDA sectors
File Size : 13.7M
Bit Rate : 320k
Sample Encoding: MPEG audio (layer I, II or III)
Comments :
Title=Where We Are Crowned As King
Artist=Commander Agares
Album=Awakening Of The Storms
Tracknumber=05
Year=2022



Register


Go to the top of the page
  Insert nick Quick quote
+Quote Post
 
Start new topic
Replies (1 - 3)
post May 15 2022, 09:18:49
Post #2

Три Литра
***
Group: Завсегдатай
Posts: 251
Releases: 0
On Forums: 12 years 8 months
Thanks: 84 time(s)
Russian Federation


Всё-таки GRAVELAND после 2007 не тот.
Но каждый раз надеюсь на чудо.


Thanks:
(1) Occultas,
Go to the top of the page
  Insert nick Quick quote
+Quote Post
post May 16 2022, 08:34:51
Post #3

Добрый язычник
**********
Group: Металариец
Posts: 1,006
Releases: 11
From: Санкт-Петербург
On Forums: 16 years 8 months
Thanks: 325 time(s)
Russian Federation


Обложка мега крутая, сам сплит гамно.
Go to the top of the page
  Insert nick Quick quote
+Quote Post
post May 16 2022, 16:11:29
Post #4

0%Tolerance
**************
Group: Металариец
Posts: 2,059
Releases: 0
On Forums: 9 years 10 months
Thanks: 425 time(s)
Unknown


Нормально старый ещё мочит паганский митол. С избитыми, да, но цепляющимися за ухо мотивчиками. Вторая банда в своей первой теме из трёх обозначенных вывезла свой около-атмосферик паган блэкх (две остальные пейсни мимо). Хороший сплит в целом.
Обложка для детишек, кто любит передёргивать на разглядывать картинки про вЫкингов.
Go to the top of the page
  Insert nick Quick quote
+Quote Post

Reply to this topicStart new topic
1 User(s) are reading this topic (1 Guests and 0 Anonymous Users)
0 Members:

 



- Lo-Fi Version Support form
Copyrights and abuse reports form
Time is now: 11th August 2022 - 06:16:17