Welcome Guest ( Log In | Register )

> Releases Upload / Добавление релизов

Добавить релиз тут / Click here to add release
Рекомендованные обменники / Recommended file shares

 
Reply to this topicStart new topic
> Astathica - Death Of Life [ep] (2022), Black Metal (D5)
post May 14 2022, 09:29:46
Post #1

funeral doom fan
Group Icon
Group: S-moderation team
Posts: 5,416
Releases: 3068
From: Ростов-на-Дону
On Forums: 16 years 6 months
Thanks: 59139 time(s)
Russian Federation


(IMG:http://metalarea.org/images/audiocovers/2022_May/acov_tid364781_thumb.jpg)

*Artist: Astathica
*Album: Death Of Life [ep]
*Year: 2022
*Genre: Black Metal
*Country: Netherlands (IMG:http://metalarea.org/forum/style_images/flags/Netherlands.png)
*Format: mp3@CBR320kbps
*Size: 56MB

Tracklist:
1. Musings on the Death of Life 12:19
2. Woods and Graves 04:15
3. The Insect (part III) 06:06
4. Epitaphium 01:45
******************************
Total playing time: 24:25



Technical info
(IMG:http://metalarea.org/images/spectrogram/2022_May/f381c978d47825872ce536562c59084e.png)
Input File: 02 - Woods and Graves.mp3
Channels : 2
Sample Rate : 44100
Precision : 16-bit
Duration : 00:04:15.57 = 11270769 samples = 19168 CDDA sectors
File Size : 10.2M
Bit Rate : 320k
Sample Encoding: MPEG audio (layer I, II or III)
Comments :
Title=Woods and Graves
Artist=Astathica
Album=Death of Life
Tracknumber=2



Register


Go to the top of the page
  Insert nick Quick quote
+Quote Post

Reply to this topicStart new topic
1 User(s) are reading this topic (1 Guests and 0 Anonymous Users)
0 Members:

 



- Lo-Fi Version Support form
Copyrights and abuse reports form
Time is now: 5th July 2022 - 22:23:07