Welcome Guest ( Log In | Register )

> Releases Upload / Добавление релизов

Добавить релиз тут / Click here to add release
Рекомендованные обменники / Recommended file shares

 
Reply to this topicStart new topic
> Cairns - Keening [ep] (2022), Atomspheric/Post-Black Metal
post May 14 2022, 09:33:22
Post #1

funeral doom fan
Group Icon
Group: S-moderation team
Posts: 5,415
Releases: 3068
From: Ростов-на-Дону
On Forums: 16 years 4 months
Thanks: 58941 time(s)
Russian Federation


(IMG:http://metalarea.org/images/audiocovers/2022_May/acov_tid364782_thumb.jpg)

*Artist: Cairns
*Album: Keening [ep]
*Year: 2022
*Genre: Atomspheric/Post-Black Metal
*Country: United Kingdom (IMG:http://metalarea.org/forum/style_images/flags/United%20Kingdom.png)
*Format: mp3@CBR320kbps
*Size: 59MB

Tracklist:
1. The Wicker Ablaze 05:33
2. When Days Grew Shorter 07:24
3. The Eternal Sea 05:42
4. Haunted 06:56
******************************
Total playing time: 25:35



Technical info
(IMG:http://metalarea.org/images/spectrogram/2022_May/30a5fce39bdaf9b628fc765257acb65b.png)
Input File: 01 - The Wicker Ablaze.mp3
Channels : 2
Sample Rate : 44100
Precision : 16-bit
Duration : 00:05:33.66 = 14714274 samples = 25024.3 CDDA sectors
File Size : 13.3M
Bit Rate : 320k
Sample Encoding: MPEG audio (layer I, II or III)
Comments :
Title=The Wicker Ablaze
Artist=Cairns
Album=Keening
Tracknumber=1
Year=2022



Register


Go to the top of the page
  Insert nick Quick quote
+Quote Post

Reply to this topicStart new topic
1 User(s) are reading this topic (1 Guests and 0 Anonymous Users)
0 Members:

 



- Lo-Fi Version Support form
Copyrights and abuse reports form
Time is now: 22nd May 2022 - 15:49:26