Welcome Guest ( Log In | Register )

> Releases Upload / Добавление релизов

Добавить релиз тут / Click here to add release
Рекомендованные обменники / Recommended file shares

> Synteleia - The Secret Last Syllable (2022), Black Metal
post May 14 2022, 09:44:39
Post #1

funeral doom fan
Group Icon
Group: S-moderation team
Posts: 5,415
Releases: 3068
From: Ростов-на-Дону
On Forums: 16 years 4 months
Thanks: 58940 time(s)
Russian Federation


(IMG:http://metalarea.org/images/audiocovers/2022_May/acov_tid364783_thumb.jpg)

*Artist: Synteleia
*Album: The Secret Last Syllable
*Year: 2022
*Genre: Black Metal
*Country: Greece (IMG:http://metalarea.org/forum/style_images/flags/Greece.png)
*Format: mp3@CBR320kbps
*Size: 93MB

Tracklist:
1. Tower of Koth 04:34
2. Emblem of Yith 04:59
3. Nymph of the Pyramids Pt. 1 - The Reign 04:51
4. Nymph of the Pyramids Pt. 2 - The Curse 05:43
5. Escaping Atheron 06:36
6. Harvest the Forest 03:56
7. Into the Abyss - A Passage to Insanity 02:09
8. The Secret Last Syllable 05:17
9. Ω-Α (Omega-Alpha) 02:31
******************************
Total playing time: 40:36



Technical info
(IMG:http://metalarea.org/images/spectrogram/2022_May/d1380b95572d17ce981721567bf8c364.png)
Input File: 01 - Tower of Koth.mp3
Channels : 2
Sample Rate : 44100
Precision : 16-bit
Duration : 00:04:33.96 = 12081812 samples = 20547.3 CDDA sectors
File Size : 11.0M
Bit Rate : 320k
Sample Encoding: MPEG audio (layer I, II or III)
Comments :
Title=Tower of Koth
Artist=Synteleia
Album=The Secret Last Syllable
Tracknumber=1



Register


Go to the top of the page
  Insert nick Quick quote
+Quote Post
 
Start new topic
Replies (1 - 4)
post May 14 2022, 11:11:29
Post #2

Group: Подсевший
Posts: 23
Releases: 0
On Forums: 3 years 1 week
Thanks: 4 time(s)
Russian Federation


Любителям Лавкрафта рекомендую)
Go to the top of the page
  Insert nick Quick quote
+Quote Post
post May 14 2022, 11:33:50
Post #3

Common dweller of hell
**************
Group: Металариец
Posts: 4,267
Releases: 12
From: Dnipro
On Forums: 13 years 10 months
Thanks: 1680 time(s)
Ukraine


Ого, новый альбом запилили.
Go to the top of the page
  Insert nick Quick quote
+Quote Post
post May 14 2022, 11:59:12
Post #4

I hate you all
**************
Group: Металариец
Posts: 2,928
Releases: 93
From: Ukraine
On Forums: 15 years 2 weeks
Thanks: 7468 time(s)
Ukraine







Go to the top of the page
  Insert nick Quick quote
+Quote Post
post May 16 2022, 07:42:04
Post #5

Common dweller of hell
**************
Group: Металариец
Posts: 4,267
Releases: 12
From: Dnipro
On Forums: 13 years 10 months
Thanks: 1680 time(s)
Ukraine


Двоякое впечатление оставил альбом, первые 4 песни просто "не про что", какая то чушь с бабскими завываниями, начиная с пятой песни идет продолжение предыдущего альбома, то есть эти вещи достаточно интересны и хороши. Ну и звук конечно катастрофа (IMG:style_emoticons/default/6.gif) (IMG:style_emoticons/default/13.gif)


Thanks:
(1) WOLAND,
Go to the top of the page
  Insert nick Quick quote
+Quote Post

Reply to this topicStart new topic
2 User(s) are reading this topic (2 Guests and 0 Anonymous Users)
0 Members:

 



- Lo-Fi Version Support form
Copyrights and abuse reports form
Time is now: 22nd May 2022 - 15:29:10