Welcome Guest ( Log In | Register )

> Releases Upload / Добавление релизов

Добавить релиз тут / Click here to add release
Рекомендованные обменники / Recommended file shares

 
Reply to this topicStart new topic
> Narthex - Narthex [ep] (2021), Black Metal (D5)
post May 14 2022, 10:02:00
Post #1

funeral doom fan
Group Icon
Group: S-moderation team
Posts: 5,415
Releases: 3068
From: Ростов-на-Дону
On Forums: 16 years 4 months
Thanks: 58941 time(s)
Russian Federation


(IMG:http://metalarea.org/images/audiocovers/2022_May/acov_tid364784_thumb.jpg)

*Artist: Narthex
*Album: Narthex [ep]
*Year: 2021
*Genre: Black Metal
*Country: United States (IMG:http://metalarea.org/forum/style_images/flags/United%20States.png)
*Format: mp3@CBR320kbps
*Size: 56MB

Tracklist:
1. The Night Hunt 04:13
2. Forbidden Black Sorcery 04:29
3. Valley of Defilement 03:39
4. Leviathan 05:34
5. Wrath of Giants 02:51
6. Aeternum 03:49
******************************
Total playing time: 24:35

(IMG:http://metalarea.org/images/youtube.png)

Technical info
(IMG:http://metalarea.org/images/spectrogram/2022_May/995cee263c69a9a255cdbb3d0d1a6ca1.png)
Input File: 01 - The Night Hunt.mp3
Channels : 2
Sample Rate : 44100
Precision : 16-bit
Duration : 00:04:13.09 = 11161313 samples = 18981.8 CDDA sectors
File Size : 10.1M
Bit Rate : 320k
Sample Encoding: MPEG audio (layer I, II or III)
Comments :
Title=The Night Hunt
Artist=Narthex
Album=Narthex
Tracknumber=1
Year=2021



Register


Go to the top of the page
  Insert nick Quick quote
+Quote Post

Reply to this topicStart new topic
2 User(s) are reading this topic (2 Guests and 0 Anonymous Users)
0 Members:

 



- Lo-Fi Version Support form
Copyrights and abuse reports form
Time is now: 22nd May 2022 - 15:42:27