Welcome Guest ( Log In | Register )

 
Reply to this topicStart new topic
> Narthex - The Vvitch King [ep] (2022), Black Metal (D5)
post May 14 2022, 10:02:37
Post #1

funeral doom fan
Group Icon
Group: S-moderation team
Posts: 5,416
Releases: 3068
From: Ростов-на-Дону
On Forums: 16 years 7 months
Thanks: 59208 time(s)
Russian Federation


(IMG:http://metalarea.org/images/audiocovers/2022_May/acov_tid364785_thumb.jpg)

*Artist: Narthex
*Album: The Vvitch King [ep]
*Year: 2022
*Genre: Black Metal
*Country: United States (IMG:http://metalarea.org/forum/style_images/flags/United%20States.png)
*Format: mp3@CBR320kbps
*Size: 58MB

Tracklist:
1. The VVitch King 04:00
2. Cells of Hollow Hand 05:45
3. Narthex 03:40
4. Fall of the VVitch King 08:19
5. VVitch King (acoustic) 03:39
******************************
Total playing time: 25:23



Technical info
(IMG:http://metalarea.org/images/spectrogram/2022_May/1e782b30fb1f9cef7408874d7aeb7995.png)
Input File: 03 - Narthex.mp3
Channels : 2
Sample Rate : 44100
Precision : 16-bit
Duration : 00:03:40.07 = 9705087 samples = 16505.2 CDDA sectors
File Size : 8.80M
Bit Rate : 320k
Sample Encoding: MPEG audio (layer I, II or III)
Comments :
Title=Narthex
Artist=Narthex
Album=The VVitch King
Tracknumber=3
Year=2022



Register


Go to the top of the page
  Insert nick Quick quote
+Quote Post

Reply to this topicStart new topic
1 User(s) are reading this topic (1 Guests and 0 Anonymous Users)
0 Members:

 



- Lo-Fi Version Support form
Copyrights and abuse reports form
Time is now: 15th August 2022 - 01:07:11