Welcome Guest ( Log In | Register )

> Releases Upload / Добавление релизов

Добавить релиз тут / Click here to add release
Рекомендованные обменники / Recommended file shares

 
Reply to this topicStart new topic
> Alvaldur - Of Dusk And Crumbling Silence [ep] (2022), Black Metal
post May 14 2022, 10:05:35
Post #1

funeral doom fan
Group Icon
Group: S-moderation team
Posts: 5,415
Releases: 3068
From: Ростов-на-Дону
On Forums: 16 years 4 months
Thanks: 58941 time(s)
Russian Federation


(IMG:http://metalarea.org/images/audiocovers/2022_May/acov_tid364786_thumb.jpg)

*Artist: Alvaldur
*Album: Of Dusk And Crumbling Silence [ep]
*Year: 2022
*Genre: Black Metal
*Country: United States (IMG:http://metalarea.org/forum/style_images/flags/United%20States.png)
*Format: mp3@CBR320kbps
*Size: 62MB

Tracklist:
1. Nightmares Ride Across the Stars 04:08
2. Where Great Halls Fade to Silence 04:28
3. Sing Not a Song for Me 06:09
4. The Wind Sings of Ruin 01:43
5. Under the Crescent Moon 03:59
6. At the End of All Tales 06:44
******************************
Total playing time: 27:11



Technical info
(IMG:http://metalarea.org/images/spectrogram/2022_May/09a8de8402c947050f3fadf848b6fd88.png)
Input File: 05 - Under the Crescent Moon.mp3
Channels : 2
Sample Rate : 44100
Precision : 16-bit
Duration : 00:03:59.25 = 10550705 samples = 17943.4 CDDA sectors
File Size : 9.57M
Bit Rate : 320k
Sample Encoding: MPEG audio (layer I, II or III)
Comments :
Title=Under the Crescent Moon
Artist=Alvaldur
Album=Of Dusk and Crumbling Silence
Tracknumber=5
Year=2022



Register


Go to the top of the page
  Insert nick Quick quote
+Quote Post

Reply to this topicStart new topic
2 User(s) are reading this topic (2 Guests and 0 Anonymous Users)
0 Members:

 



- Lo-Fi Version Support form
Copyrights and abuse reports form
Time is now: 22nd May 2022 - 16:07:56