Welcome Guest ( Log In | Register )

> Releases Upload / Добавление релизов

Добавить релиз тут / Click here to add release
Рекомендованные обменники / Recommended file shares

 
Reply to this topicStart new topic
> Floridian Hippies - Fuel Injected [ep] (2022), Death Metal
post May 14 2022, 11:35:59
Post #1

Правь статус, ####!111
**************
Group: Металариец
Posts: 2,625
Releases: 1195
On Forums: 11 years 6 months
Thanks: 23596 time(s)
Russian Federation


(IMG:https://metalarea.org/images/audiocovers/2022_May/acov_tid364787_thumb.jpg)

*Artist: Floridian Hippies
*Album: Fuel Injected [ep]
*Year: 2022
*Genre: Death Metal
*Country: Finland (IMG:https://metalarea.org/forum/style_images/flags/Finland.png)
*Format: mp3@CBR320kbps
*Size: 28MB

Tracklist:
1.Fuel Injected 02:25
2.Yeah! 03:09
3.Blues for the Cosmos 04:08
4.Napalm Hippies 01:54
5.Kaikki Haisee (Puhelinkoppi Cover) 00:49
******************************
Total playing time: 12:25



Technical info
(IMG:https://metalarea.org/images/spectrogram/2022_May/f69862cf6de15161a37701b6a03b1157.png)
Input File: 04 - Napalm Hippies.mp3
Channels : 2
Sample Rate : 44100
Precision : 16-bit
Duration : 00:01:54.74 = 5059990 samples = 8605.43 CDDA sectors
File Size : 4.82M
Bit Rate : 336k
Sample Encoding: MPEG audio (layer I, II or III)
Comments :
Title=Napalm Hippies
Artist=Floridian Hippies
Album=Fuel Injected
Tracknumber=04
Year=2022
Genre=Death Metal



Register


Go to the top of the page
  Insert nick Quick quote
+Quote Post

Reply to this topicStart new topic
1 User(s) are reading this topic (1 Guests and 0 Anonymous Users)
0 Members:

 



- Lo-Fi Version Support form
Copyrights and abuse reports form
Time is now: 22nd May 2022 - 14:47:03