Welcome Guest ( Log In | Register )

> Releases Upload / Добавление релизов

Добавить релиз тут / Click here to add release
Рекомендованные обменники / Recommended file shares

> Krod - Black Metal Legion (2022), Black Metal (D4)
post May 14 2022, 11:43:40
Post #1

Восемь Литров
********
Group: Металариец
Posts: 839
Releases: 50
On Forums: 16 years 2 months
Thanks: 1693 time(s)
Germany


(IMG:http://metalarea.org/images/audiocovers/2022_May/acov_tid364788_thumb.jpg)

*Artist: Krod
*Album: Black Metal Legion
*Year: 2022
*Genre: Black Metal
*Country: Chile (IMG:http://metalarea.org/forum/style_images/flags/Chile.png)
*Format: mp3@CBR320kbps
*Size: 133MB

Tracklist:
01. Serpents Sorrows 06:08
02. Black Metal Legion 04:03
03. No Proud 06:43
04. Nihilist Shadows 04:40
05. Holocaust 05:44
06. K.R.O.D. 05:38
07. Humans Must Die 06:16
08. Howl Of Loneliness 04:26
09. Entre La Eternidad 13:20
******************************
Total playing time: 56:58



Extended info
Password: metalarea.org

Enjoy! (IMG:style_emoticons/default/smile1.gif)


Technical info
(IMG:http://metalarea.org/images/spectrogram/2022_May/e4bcb8cd247d5ed2584c42748569a9e3.png)
Input File: 01-Krod-Serpents_Sorrows.mp3
Channels : 2
Sample Rate : 44100
Precision : 16-bit
Duration : 00:06:08.09 = 16232681 samples = 27606.6 CDDA sectors
File Size : 14.7M
Bit Rate : 320k
Sample Encoding: MPEG audio (layer I, II or III)
Comments :
Title=Serpents Sorrows
Artist=Krod
Album=Black Metal Legion
Tracknumber=1/9
Year=2022
Genre=Black Metal



Register


Go to the top of the page
  Insert nick Quick quote
+Quote Post
 
Start new topic
Replies (1 - 2)
post May 18 2022, 09:15:16
Post #2

Маньяк
**********
Group: Металариец
Posts: 1,153
Releases: 0
From: Новосибирск
On Forums: 12 years 8 months
Thanks: 319 time(s)
Russian Federation


ЦИТАТА
Humans Must Die


Прямолинейные как танк (IMG:style_emoticons/default/smile3.gif)
Go to the top of the page
  Insert nick Quick quote
+Quote Post
post May 18 2022, 19:08:50
Post #3

0%Tolerance
***********
Group: Металариец
Posts: 1,829
Releases: 0
On Forums: 9 years 8 months
Thanks: 391 time(s)
Unknown


Почти одноимённая с названием группца телега с аббревиатурой в названии, прошу пардона за тавтологию - угарная. А вот телега с названием Блэкх Митол Легион, которая должна быть люто злобной, соответствуя названию альбома и как заглавная и титульная в альбоме, получилась вообще какой-то жиденькой. (IMG:style_emoticons/default/1488.gif)
Так-то одноразовая блэчина.
Go to the top of the page
  Insert nick Quick quote
+Quote Post

Reply to this topicStart new topic
1 User(s) are reading this topic (1 Guests and 0 Anonymous Users)
0 Members:

 



- Lo-Fi Version Support form
Copyrights and abuse reports form
Time is now: 22nd May 2022 - 14:57:59