Welcome Guest ( Log In | Register )

 
Reply to this topicStart new topic
> Muruth - Legie Oceli [ep] (2019), Black Metal
post May 14 2022, 11:45:35
Post #1

...
**************
Group: Металариец
Posts: 3,608
Releases: 1523
From: МЕЩЁРА
On Forums: 14 years 4 months
Thanks: 44588 time(s)
Russian Federation


(IMG:https://metalarea.org/images/audiocovers/2022_May/acov_tid364789_thumb.jpg)

*Artist: Muruth
*Album: Legie Oceli [ep]
*Year: 2019
*Genre: Black Metal
*Country: Slovakia (IMG:https://metalarea.org/forum/style_images/flags/Slovakia.png)
*Format: mp3@CBR320kbps
*Size: 61MB

Tracklist:
1. Sláva Padlým 04:17
2. Pramen Zla 03:18
3. Legie Oceli 04:33
4. Stíny v Popel 03:55
5. Morová Města 03:20
6. Solární Smrt 03:38
7. Brokovnice Řeší Problém 03:53
******************************
Total playing time: 26:54

Technical info
(IMG:https://metalarea.org/images/spectrogram/2022_May/5c04865178bd942f45aff365f6a0f0fb.png)
Input File: 01. Sláva Padlým.mp3
Channels : 2
Sample Rate : 44100
Precision : 16-bit
Duration : 00:04:17.45 = 11353721 samples = 19309 CDDA sectors
File Size : 10.3M
Bit Rate : 320k
Sample Encoding: MPEG audio (layer I, II or III)
Comments :
Title=Slava Padlym
Artist=Muruth
Album=Legie Oceli
Tracknumber=1
Year=2019
Genre=Black Metal
Discnumber=1



Register


Go to the top of the page
  Insert nick Quick quote
+Quote Post
post May 24 2022, 14:50:38
Post #2

добрый мизантроп
**************
Group: Металариец
Posts: 3,109
Releases: 1
From: Менск
On Forums: 11 years 9 months
Thanks: 1379 time(s)
Madagascar


(IMG:style_emoticons/default/true_black.gif) (IMG:style_emoticons/default/true_black.gif)
Go to the top of the page
  Insert nick Quick quote
+Quote Post

Reply to this topicStart new topic
1 User(s) are reading this topic (1 Guests and 0 Anonymous Users)
0 Members:

 



- Lo-Fi Version Support form
Copyrights and abuse reports form
Time is now: 17th August 2022 - 09:47:28