Welcome Guest ( Log In | Register )

> Releases Upload / Добавление релизов

Добавить релиз тут / Click here to add release
Рекомендованные обменники / Recommended file shares

 
Reply to this topicStart new topic
> Muruth - MMXX - Ubi Concordia Ibi Victoria (2020), Black Metal
post May 14 2022, 11:46:51
Post #1

...
**************
Group: Металариец
Posts: 3,587
Releases: 1509
From: МЕЩЁРА
On Forums: 14 years 1 month
Thanks: 44169 time(s)
Russian Federation


(IMG:https://metalarea.org/images/audiocovers/2022_May/acov_tid364790_thumb.jpg)

*Artist: Muruth
*Album: MMXX - Ubi Concordia Ibi Victoria
*Year: 2020
*Genre: Black Metal
*Country: Slovakia (IMG:https://metalarea.org/forum/style_images/flags/Slovakia.png)
*Format: mp3@CBR320kbps
*Size: 76MB

Tracklist:
1. Poslední Pevnost 04:20
2. Infanterie 04:44
3. Černé Kladivo 04:43
4. Železné Rakve 04:12
5. Ragnageddon 03:49
6. Soudce Kat 03:53
7. Řezník 04:15
8. Prapor V Ledu 03:29
******************************
Total playing time: 33:25

Technical info
(IMG:https://metalarea.org/images/spectrogram/2022_May/3c0b4031a438e28461ecbd48faf228fb.png)
Input File: 01. Poslední Pevnost.mp3
Channels : 2
Sample Rate : 44100
Precision : 16-bit
Duration : 00:04:20.75 = 11498855 samples = 19555.9 CDDA sectors
File Size : 10.4M
Bit Rate : 320k
Sample Encoding: MPEG audio (layer I, II or III)
Comments :
Title=Posledni Pevnost
Artist=Muruth
Album=MMXX - Ubi Concordia Ibi Victoria
Tracknumber=1
Year=2020
Genre=Black Metal
Discnumber=1



Register


Go to the top of the page
  Insert nick Quick quote
+Quote Post

Reply to this topicStart new topic
1 User(s) are reading this topic (1 Guests and 0 Anonymous Users)
0 Members:

 



- Lo-Fi Version Support form
Copyrights and abuse reports form
Time is now: 22nd May 2022 - 14:27:01