Welcome Guest ( Log In | Register )

> Releases Upload / Добавление релизов

Добавить релиз тут / Click here to add release
Рекомендованные обменники / Recommended file shares

 
Reply to this topicStart new topic
> Ancestral Shadows - Preserving All Darkness In This World (2012), Black Metal (D)
post May 14 2022, 11:48:34
Post #1

...
**************
Group: Металариец
Posts: 3,587
Releases: 1509
From: МЕЩЁРА
On Forums: 14 years 1 month
Thanks: 44169 time(s)
Russian Federation


(IMG:https://metalarea.org/images/audiocovers/2022_May/acov_tid364791_thumb.jpg)

*Artist: Ancestral Shadows
*Album: Preserving All Darkness In This World
*Year: 2012
*Genre: Black Metal
*Country: United States (IMG:https://metalarea.org/forum/style_images/flags/United%20States.png)
*Format: mp3@CBR320kbps
*Size: 104MB

Tracklist:
1. Intro: A Monument To The Forgotten 01:42
2. The Flames Of Old Guide My Path 07:40
3. The Dead Whispers Of A Black Autumn 09:19
4. And The World Grows Colder... 02:43
5. Preserving All Darkness In This World 06:30
6. Forest Of Heathen Rebirth 07:50
7. Dusk's Final Breath Pt. II 01:53
8. Ancestral Shadows 08:14
******************************
Total playing time: 45:51

Extended info


Technical info
(IMG:https://metalarea.org/images/spectrogram/2022_May/0d136bc4d5960a7205061b8461fa7a45.png)
Input File: 02. The Flames of Old Guide My Path.mp3
Channels : 2
Sample Rate : 44100
Precision : 16-bit
Duration : 00:07:40.91 = 20325999 samples = 34568 CDDA sectors
File Size : 18.4M
Bit Rate : 320k
Sample Encoding: MPEG audio (layer I, II or III)
Comments :
Title=The Flames of Old Guide My Path
Artist=Ancestral Shadows
Album=Preserving All Darkness in This World
Tracknumber=2
Year=2012
Genre=Black Metal
Discnumber=1



Register


Go to the top of the page
  Insert nick Quick quote
+Quote Post

Reply to this topicStart new topic
2 User(s) are reading this topic (2 Guests and 0 Anonymous Users)
0 Members:

 



- Lo-Fi Version Support form
Copyrights and abuse reports form
Time is now: 22nd May 2022 - 14:07:04