Welcome Guest ( Log In | Register )

> Releases Upload / Добавление релизов

Добавить релиз тут / Click here to add release
Рекомендованные обменники / Recommended file shares

> Giant Walker - All In Good Time (2022), Progressive Metal
post May 14 2022, 13:31:47
Post #1

Правь статус, ####!111
**************
Group: Металариец
Posts: 2,625
Releases: 1195
On Forums: 11 years 6 months
Thanks: 23605 time(s)
Russian Federation


(IMG:https://metalarea.org/images/audiocovers/2022_May/acov_tid364795_thumb.jpg)

*Artist: Giant Walker
*Album: All In Good Time
*Year: 2022
*Genre: Progressive Metal
*Country: United Kingdom (IMG:https://metalarea.org/forum/style_images/flags/United%20Kingdom.png)
*Format: mp3@CBR320kbps
*Size: 99MB

Tracklist:
01.The Fact In Fiction 04:29
02.Katoomba 03:29
03.Podha 05:00
04.Inertia 04:09
05.Optophobia 03:23
06.Left To Wreck 04:24
07.Past The Peak 04:30
08.All We Have Is Gone 04:58
09.Coda 06:15
******************************
Total playing time: 40:37

(IMG:https://metalarea.org/images/youtube.png)
(IMG:https://metalarea.org/images/youtube.png)


Technical info
(IMG:https://metalarea.org/images/spectrogram/2022_May/d015a49eb3dbbf879c99eb57fa40d39b.png)
Input File: 02 - Katoomba.mp3
Channels : 2
Sample Rate : 44100
Precision : 16-bit
Duration : 00:03:29.31 = 9230439 samples = 15698 CDDA sectors
File Size : 8.53M
Bit Rate : 326k
Sample Encoding: MPEG audio (layer I, II or III)
Comments :
Title=Katoomba
Artist=Giant Walker
Album=All In Good Time
Tracknumber=02
Year=2022
Genre=Progressive Metal



Register


Go to the top of the page
  Insert nick Quick quote
+Quote Post
 
Start new topic
Replies (1 - 2)
post May 14 2022, 20:07:50
Post #2

Шесть Литров
******
Group: Металариец
Posts: 551
Releases: 0
On Forums: 15 years 4 months
Thanks: 69 time(s)
Russian Federation


Приятная музыка, симпатичная девушка, хороший вокал. Радует что действительно поет, а не говорит растягивая. Еще бы поигралась голосом, ваще был бы агонь. По звучанию напоминает VOLA, по стилистика наверно Amartia.


Thanks:
(1) Yarri,
Go to the top of the page
  Insert nick Quick quote
+Quote Post
post Yesterday, 18:52:13
Post #3

21st Century Schizoid Man
**************
Group: Металариец
Posts: 7,260
Releases: 90
From: Pirate Bay
On Forums: 14 years 2 weeks
Thanks: 6153 time(s)
Liberia


Составляющие неплохие, но цельного ощущения нет. Не зацепило совершенно. Скорее всего снесу.
Go to the top of the page
  Insert nick Quick quote
+Quote Post

Reply to this topicStart new topic
1 User(s) are reading this topic (1 Guests and 0 Anonymous Users)
0 Members:

 



- Lo-Fi Version Support form
Copyrights and abuse reports form
Time is now: 22nd May 2022 - 15:31:01