Welcome Guest ( Log In | Register )

> Releases Upload / Добавление релизов

Добавить релиз тут / Click here to add release
Рекомендованные обменники / Recommended file shares

 
Reply to this topicStart new topic
> Sequestrum - The Epitome Of Putridity [demo] (2022), Death Metal/Goregrind
post May 14 2022, 13:55:50
Post #1

Правь статус, ####!111
**************
Group: Металариец
Posts: 2,114
Releases: 265
From: Omsk, Siberia
On Forums: 13 years 3 months
Thanks: 5250 time(s)
Russian Federation


(IMG:https://metalarea.org/images/audiocovers/2022_May/acov_tid364796_thumb.jpg)

*Artist: Sequestrum
*Album: The Epitome Of Putridity [demo]
*Year: 2022
*Genre: Death Metal/Goregrind
*Country: Denmark (IMG:https://metalarea.org/forum/style_images/flags/Denmark.png)
*Format: mp3@CBR320kbps
*Size: 39MB

Tracklist:
1. Symposium At The Crematorium 03:25
2. Involucrum Osteomyelitis 02:34
3. Tache Noire 03:35
4. Pearls On Offal 02:36
5. The Tea Of The Heart 03:31
******************************
Total playing time: 15:43




Extended info
Released on MC/MCD/Digital by Extremely Rotten Productions.

Line-up:
Andreas Nordgreen - bass, vocals
David Torturdød - guitar, vocals
Frederik Kabukiman Laursen - drums, vocals
Søren Willatzen - guitar, vocals


Technical info
(IMG:https://metalarea.org/images/spectrogram/2022_May/764a6c468e1e9a2290b62b86c6915c1e.png)
Input File: 02 Involucrum Osteomyelitis.mp3
Channels : 2
Sample Rate : 44100
Precision : 16-bit
Duration : 00:02:34.00 = 6791400 samples = 11550 CDDA sectors
File Size : 6.46M
Bit Rate : 335k
Sample Encoding: MPEG audio (layer I, II or III)
Comments :
Title=Involucrum Osteomyelitis
Artist=Sequestrum
Album=The Epitome of Putridity
Tracknumber=2
Year=2022
Genre=Deathgrind



Register


Go to the top of the page
  Insert nick Quick quote
+Quote Post

Reply to this topicStart new topic
1 User(s) are reading this topic (1 Guests and 0 Anonymous Users)
0 Members:

 



- Lo-Fi Version Support form
Copyrights and abuse reports form
Time is now: 5th July 2022 - 22:00:38