Welcome Guest ( Log In | Register )

> Releases Upload / Добавление релизов

Добавить релиз тут / Click here to add release
Рекомендованные обменники / Recommended file shares

 
Reply to this topicStart new topic
> Hellish Rebuke - Immortal Shell [ep] (2022), Death/Black Metal
post May 14 2022, 14:17:22
Post #1

Правь статус, ####!111
**************
Group: Металариец
Posts: 2,977
Releases: 1515
On Forums: 11 years 7 months
Thanks: 29733 time(s)
Russian Federation


(IMG:https://metalarea.org/images/audiocovers/2022_May/acov_tid364797_thumb.jpg)

*Artist: Hellish Rebuke
*Album: Immortal Shell [ep]
*Year: 2022
*Genre: Death/Black Metal
*Country: Canada (IMG:https://metalarea.org/forum/style_images/flags/Canada.png)
*Format: mp3@CBR320kbps
*Size: 38MB

Tracklist:
1.Terror Upon Them 07:28
2.Further Into Servitude 04:47
3.You Won't be Missed 03:49
******************************
Total playing time: 16:04



Technical info
(IMG:https://metalarea.org/images/spectrogram/2022_May/faa41692c76c1a81cf49b34ac831d593.png)
Input File: 03 You Won\'t be Missed.mp3
Channels : 2
Sample Rate : 44100
Precision : 16-bit
Duration : 00:03:49.71 = 10130211 samples = 17228.2 CDDA sectors
File Size : 9.32M
Bit Rate : 325k
Sample Encoding: MPEG audio (layer I, II or III)
Comments :
Title=You Won't be Missed
Artist=Hellish Rebuke
Album=Immortal Shell
Tracknumber=03
Year=2022
Genre=Death/Black Metal



Register


Go to the top of the page
  Insert nick Quick quote
+Quote Post

Reply to this topicStart new topic
2 User(s) are reading this topic (2 Guests and 0 Anonymous Users)
0 Members:

 



- Lo-Fi Version Support form
Copyrights and abuse reports form
Time is now: 5th July 2022 - 16:08:12