Welcome Guest ( Log In | Register )

> Releases Upload / Добавление релизов

Добавить релиз тут / Click here to add release
Рекомендованные обменники / Recommended file shares

> Inner Turmoil - The Void [ep] (2022), Melodic Death Metal
post May 14 2022, 15:29:52
Post #1

Правь статус, ####!111
**************
Group: Металариец
Posts: 2,625
Releases: 1195
On Forums: 11 years 6 months
Thanks: 23596 time(s)
Russian Federation


(IMG:https://metalarea.org/images/audiocovers/2022_May/acov_tid364800_thumb.jpg)

*Artist: Inner Turmoil
*Album: The Void [ep]
*Year: 2022
*Genre: Melodic Death Metal
*Country: Canada (IMG:https://metalarea.org/forum/style_images/flags/Canada.png)
*Format: mp3@CBR320kbps
*Size: 53MB

Tracklist:
1.Wrath of the Warrior 04:50
2.Dying World 04:45
3.The Abyss 05:11
4.Unleash the Storm 03:26
5.The Void 04:58
******************************
Total playing time: 23:10

Technical info
(IMG:https://metalarea.org/images/spectrogram/2022_May/6921abe79ad2499c528a0fadcacc2e88.png)
Input File: 04 - Unleash the Storm.mp3
Channels : 2
Sample Rate : 44100
Precision : 16-bit
Duration : 00:03:26.98 = 9127906 samples = 15523.6 CDDA sectors
File Size : 8.47M
Bit Rate : 327k
Sample Encoding: MPEG audio (layer I, II or III)
Comments :
Title=Unleash the Storm
Artist=Inner Turmoil
Album=The Void
Tracknumber=04
Year=2022
Genre=Death Metal



Register


Go to the top of the page
  Insert nick Quick quote
+Quote Post
 
Start new topic
Replies (1 - 4)
post May 14 2022, 23:21:26
Post #2

hearer & reader
**************
Group: Металариец
Posts: 10,281
Releases: 211
From: Moscow
On Forums: 14 years 8 months
Thanks: 12380 time(s)
Russian Federation



1-й блин


Thanks:
(1) djsema4,
Go to the top of the page
  Insert nick Quick quote
+Quote Post
post May 15 2022, 09:34:29
Post #3

Тридцать лет на борту "Тяжёлого" крейсера
**************
Group: Металариец
Posts: 2,862
Releases: 0
From: Питер
On Forums: 14 years 11 months
Thanks: 900 time(s)
Russian Federation


толковый MDM, ничего нового, но приятно слушается


Thanks:
(1) WOLAND,
Go to the top of the page
  Insert nick Quick quote
+Quote Post
post May 15 2022, 09:50:28
Post #4

Группа: esoteric V.I.P
**************
Group: Металариец
Posts: 2,366
Releases: 0
From: Культград
On Forums: 7 years 10 months
Thanks: 1063 time(s)
Unknown


Точно. Молодцы, нагнетающие риффы и ненавязчивые мелодии. Нет тут модерна как пишут, и вообще странно что они не на французском выдали дебют. вангую группа распадется если не начнет вплетать кор и модерн. Такие сейчас времена. Ну или если их не подпишет ,,Сатанат,, (IMG:style_emoticons/default/9.gif)
Go to the top of the page
  Insert nick Quick quote
+Quote Post
post May 15 2022, 12:56:26
Post #5

Old School Metal
**************
Group: Металариец
Posts: 4,380
Releases: 0
From: г. Минск
On Forums: 13 years 2 months
Thanks: 11224 time(s)
Belarus


Lossless: FLAC (tracks)
Register


Thanks:
(1) Ingvar,
Go to the top of the page
  Insert nick Quick quote
+Quote Post

Reply to this topicStart new topic
1 User(s) are reading this topic (1 Guests and 0 Anonymous Users)
0 Members:

 



- Lo-Fi Version Support form
Copyrights and abuse reports form
Time is now: 22nd May 2022 - 14:52:24