Welcome Guest ( Log In | Register )

 
Reply to this topicStart new topic
> Saltsower - Saltsower [ep] (2022), Blackened Sludge/Hardcore
post May 14 2022, 17:18:49
Post #1

Правь статус, ####!111
**************
Group: Металариец
Posts: 5,309
Releases: 4858
From: Одесса
On Forums: 14 years 2 months
Thanks: 57127 time(s)
Ukraine


(IMG:http://metalarea.org/images/audiocovers/2022_May/acov_tid364804_thumb.jpg)

*Artist: Saltsower
*Album: Saltsower [ep]
*Year: 2022
*Genre: Blackened Sludge/Hardcore
*Country: International (IMG:http://metalarea.org/forum/style_images/flags/International.png)
*Format: mp3@CBR320kbps
*Size: 45MB

Tracklist:
1. She is the Curse 04:34
2. Upon the Slits in Our Tongues 04:16
3. All-devouring Antagonism 05:11
4. Feeding Heat Death 04:59
******************************
Total playing time: 19:00



Extended info
Line - up:

Goularth - Bass, Vocals (backing) (Lifechapters, PartyGrind, The Shade of Crow, Astralscape, Bleakstar, Disbömber, Emptiness of Existence, Lead Wings, Nulo, Quarantine Experiments, The DryHoppers, Windwritings, ex-As Dramatic Homage, ex-Vociferatus, ex-Septerra (live), ex-Carpensarem, ex-Necropse, ex-Scars Within, ex-Stealth)
Kylmäaho - Vocals, Guitars (Atrum Tempestas, Culsans, Hibernation Cycle, Lead Wings, Vale, ex-Ars Praesagus)

Released on the last sane days of humanity, Saltsower weeps blast- and d-beats for the final, complete societal breakdown of mankind.

A chaotic concoction of black metal infused with elements of post-hardcore and sludge, with down-tuned guitars accompanied by growls, screams and clean vocals create a relentless listening experience.

This first EP release by Saltsower is a 20 minute trip down to a deep end vision of humanity's future.


Technical info
(IMG:http://metalarea.org/images/spectrogram/2022_May/e0a1303bf2e4e730437ca5c38c5a08ce.png)
Input File: 02. Upon the Slits in Our Tongues.mp3
Channels : 2
Sample Rate : 48000
Precision : 16-bit
Duration : 00:04:16.23 = 12298896 samples ~ 19217 CDDA sectors
File Size : 10.3M
Bit Rate : 323k
Sample Encoding: MPEG audio (layer I, II or III)
Comments :
Title=Upon the Slits in Our Tongues
Artist=Saltsower
Album=Saltsower (EP)
Tracknumber=2
Year=2022
Genre=Blackened Sludge Metal | Hardcore



Register


Go to the top of the page
  Insert nick Quick quote
+Quote Post

Reply to this topicStart new topic
1 User(s) are reading this topic (1 Guests and 0 Anonymous Users)
0 Members:

 



- Lo-Fi Version Support form
Copyrights and abuse reports form
Time is now: 11th August 2022 - 19:07:13