Welcome Guest ( Log In | Register )

 
Reply to this topicStart new topic
> Alfhëim - Cenizas De Una Leyenda (2022), Folk Metal
post May 14 2022, 17:42:24
Post #1

Правь статус, ####!111
**************
Group: Металариец
Posts: 29,954
Releases: 22044
From: Г.Харьков
On Forums: 10 years 3 months
Thanks: 458699 time(s)
Unknown


(IMG:https://metalarea.org/images/audiocovers/2022_May/acov_tid364805_thumb.jpg)

*Artist: Alfhëim
*Album: Cenizas De Una Leyenda
*Year: 2022
*Genre: Folk Metal
*Country: Mexico (IMG:https://metalarea.org/forum/style_images/flags/Mexico.png)
*Format: mp3@CBR320kbps
*Size: 97MB

Tracklist:
1. Ex favilla ad cinerem 02:59
2. Ritual de sangre y fuego 05:18
3. El pacto del guerrero (2021 Remastered Version) 04:20
4. Fatua divina 01:28
5. Hermandad 04:54
6. Ocaso eternal 03:34
7. Más allá de la existencia 04:21
8. Desde el caos 05:05
9. La dama del bosque 10:18
******************************
Total playing time: 42:17



Extended info
Alberto Medina Bass
Hery Garcia Drums
Alberto Castillo Guitars, Vocals (choirs)
Alberto Cruz Vocals, Flute
Alberto Ayala Vocals, Guitars



Technical info
(IMG:https://metalarea.org/images/spectrogram/2022_May/db841ec29f36deb76324b3bf01cc2ca6.png)
Input File: 09 - La dama del bosque.mp3
Channels : 2
Sample Rate : 44100
Precision : 16-bit
Duration : 00:10:18.00 = 27253800 samples = 46350 CDDA sectors
File Size : 24.9M
Bit Rate : 322k
Sample Encoding: MPEG audio (layer I, II or III)
Comments :
Title=La dama del bosque
Artist=Alfhëim
Album=CENIZAS DE UNA LEYENDA
Tracknumber=9
Year=2022-03-05
Genre=Rock
Discnumber=1



Register


Go to the top of the page
  Insert nick Quick quote
+Quote Post

Reply to this topicStart new topic
1 User(s) are reading this topic (1 Guests and 0 Anonymous Users)
0 Members:

 



- Lo-Fi Version Support form
Copyrights and abuse reports form
Time is now: 17th August 2022 - 08:26:57