Welcome Guest ( Log In | Register )

> Releases Upload / Добавление релизов

Добавить релиз тут / Click here to add release
Рекомендованные обменники / Recommended file shares

 
Reply to this topicStart new topic
> Satyam - Dance Of The Five [ep] (2022), Blackened Doom/Death Metal
post May 14 2022, 17:50:35
Post #1

Правь статус, ####!111
**************
Group: Металариец
Posts: 29,275
Releases: 21491
From: Г.Харьков
On Forums: 10 years 1 week
Thanks: 443624 time(s)
Unknown


(IMG:https://metalarea.org/images/audiocovers/2022_May/acov_tid364806_thumb.jpg)

*Artist: Satyam
*Album: Dance Of The Five [ep]
*Year: 2022
*Genre: Blackened Doom/Death Metal
*Country: France (IMG:https://metalarea.org/forum/style_images/flags/France.png)
*Format: mp3@CBR320kbps
*Size: 54MB

Tracklist:
1. Enerpigenetics 04:45
2. Advaita 06:00
3. Tale of Blasphemy 02:58
4. Guidance from the Great Ibis 04:17
5. Dance of the Five 05:30
******************************
Total playing time: 23:30



Extended info
Fred Bass
Vincent Drums
Mickael Guitars
Cédric Flament Guitars
Franck Vocals


Technical info
(IMG:https://metalarea.org/images/spectrogram/2022_May/96a63ffc8ed4f12a8b3de5d005fbf8a4.png)
Input File: 05 - Dance of the Five.mp3
Channels : 2
Sample Rate : 44100
Precision : 16-bit
Duration : 00:05:30.00 = 14553000 samples = 24750 CDDA sectors
File Size : 13.4M
Bit Rate : 324k
Sample Encoding: MPEG audio (layer I, II or III)
Comments :
Title=Dance of the Five
Artist=Satyam
Album=Dance of the Five
Tracknumber=5
Year=2022-05-13
Genre=Metal
Discnumber=1



Register


Go to the top of the page
  Insert nick Quick quote
+Quote Post

Reply to this topicStart new topic
1 User(s) are reading this topic (1 Guests and 0 Anonymous Users)
0 Members:

 



- Lo-Fi Version Support form
Copyrights and abuse reports form
Time is now: 22nd May 2022 - 14:01:40