Welcome Guest ( Log In | Register )

> Stinkbrute - The Gruesome Exchange Of Bodily Fluids That Turned Into A Bile Duct Titan (2022), Grindcore/Death Metal
post May 15 2022, 04:50:15
Post #1

Правь статус, ####!111
**************
Group: Металариец
Posts: 3,223
Releases: 1734
On Forums: 11 years 8 months
Thanks: 33713 time(s)
Russian Federation


(IMG:https://metalarea.org/images/audiocovers/2022_May/acov_tid364813_thumb.jpg)

*Artist: Stinkbrute
*Album: The Gruesome Exchange Of Bodily Fluids That Turned Into A Bile Duct Titan
*Year: 2022
*Genre: Grindcore/Death Metal
*Country: Portugal (IMG:https://metalarea.org/forum/style_images/flags/Portugal.png)
*Format: mp3@CBR320kbps
*Size: 66MB

Tracklist:
1.Anal Bleeding Goes Viral 00:47
2.The Day of Chromosome Rain 00:57
3.Fvcking Coke Blowers 00:56
4.Pigs Wear Ties, Humans Wear Murder 00:49
5.Blow dough jow coe yo yo yo 01:35
6.Premonition Of Stink 01:15
7.Waaaaay up inside your butthole 02:23
8.Cow Molesters 01:33
9.Hurt Feelings 00:49
10.Into The Acid They Went 01:15
11.Blood Malfunction 01:08
12.Grinders Dream 02:02
13.Making My Way Into The Psychiatric Ward 02:57
14.Send Them To The Hole 01:25
15.The Darkness Over Yonder 01:30
16.Convoluted Convulsion 02:05
17.The Gruesome Exchange Of Bodily Fluids That Turned Into a Bile Duct Titan 02:56
18.Chelengo Lengo 01:28
19.Goodbye part 1 02:21
******************************
Total playing time: 30:11



Technical info
(IMG:https://metalarea.org/images/spectrogram/2022_May/db74fc2cb4f0edd1ab4819792f2aeb60.png)
Input File: 03 - Fvcking Coke Blowers.mp3
Channels : 2
Sample Rate : 44100
Precision : 16-bit
Duration : 00:00:56.09 = 2473613 samples = 4206.82 CDDA sectors
File Size : 2.42M
Bit Rate : 346k
Sample Encoding: MPEG audio (layer I, II or III)
Comments :
Title=Fvcking Coke Blowers
Artist=Stinkbrute
Album=The Gruesome Exchange of Bodily Fluids That Turned Into A Bile Duct Titan
Tracknumber=03
Year=2022
Genre=Death Metal/Grindcore



Register


Go to the top of the page
  Insert nick Quick quote
+Quote Post
 
Start new topic
Replies (1 - 1)
post May 17 2022, 08:27:48
Post #2

Мегаманьяк
***********
Group: Металариец
Posts: 1,738
Releases: 1
From: APATIN, SERBIA, АПАТИН, СЕРБИЯ
On Forums: 14 years 9 months
Thanks: 5176 time(s)



Flac

Register


Thanks:
Go to the top of the page
  Insert nick Quick quote
+Quote Post

Reply to this topicStart new topic
1 User(s) are reading this topic (1 Guests and 0 Anonymous Users)
0 Members:

 



- Lo-Fi Version Support form
Copyrights and abuse reports form
Time is now: 15th August 2022 - 01:19:12