Welcome Guest ( Log In | Register )

> Zatchla - Cryptarque [ep] (2022), Black Metal
post May 15 2022, 08:03:34
Post #1

Absorbence
**************
Group: Металариец
Posts: 2,100
Releases: 395
From: Vastland Abyss of Cthulhu
On Forums: 15 years 8 months
Thanks: 6875 time(s)
United States


(IMG:https://metalarea.org/images/audiocovers/2022_May/acov_tid364818_thumb.jpg)

*Artist: Zatchla
*Album: Cryptarque [ep]
*Year: 2022
*Genre: Black Metal
*Country: France (IMG:https://metalarea.org/forum/style_images/flags/France.png)
*Format: mp3@CBR320kbps
*Size: 53MB

Tracklist:
1. A Beginner's Guide to Necromancy 00:44
2. Rituals Unkown 05:10
3. Stygian Lords 04:22
4. Angel of Destruction 03:42
5. Horrendous 04:06
6. Consecration 05:26
******************************
Total playing time: 23:30


Preview 2

Technical info
(IMG:https://metalarea.org/images/spectrogram/2022_May/5c5f9bff4883b45acc09b1d72199344b.png)
Input File: 03. Zatchla - Stygian Lords.mp3
Channels : 2
Sample Rate : 48000
Precision : 16-bit
Duration : 00:04:22.11 = 12581136 samples ~ 19658 CDDA sectors
File Size : 10.5M
Bit Rate : 320k
Sample Encoding: MPEG audio (layer I, II or III)
Comments :
Title=Stygian Lords
Artist=Zatchla
Album=Cryptarque
Tracknumber=03/06
Year=2022
Genre=138



Register


Go to the top of the page
  Insert nick Quick quote
+Quote Post
 
Start new topic
Replies (1 - 2)
post May 15 2022, 20:23:02
Post #2

Cultist
**************
Group: Металариец
Posts: 4,620
Releases: 1336
From: Koenigsberg
On Forums: 15 years 7 months
Thanks: 9377 time(s)
Russian Federation


Затхла?
Go to the top of the page
  Insert nick Quick quote
+Quote Post
post May 24 2022, 12:35:47
Post #3

добрый мизантроп
**************
Group: Металариец
Posts: 3,100
Releases: 1
From: Менск
On Forums: 11 years 8 months
Thanks: 1370 time(s)
Madagascar


ЦИТАТА(TDM @ May 15 2022, 22:23:02) *
Затхла?

есть такое
Go to the top of the page
  Insert nick Quick quote
+Quote Post

Reply to this topicStart new topic
1 User(s) are reading this topic (1 Guests and 0 Anonymous Users)
0 Members:

 



- Lo-Fi Version Support form
Copyrights and abuse reports form
Time is now: 11th August 2022 - 01:09:46