Welcome Guest ( Log In | Register )

> Battle Symphony - War On Earth (2022), Symphonic Heavy/Power Metal
post May 15 2022, 10:16:21
Post #1

hearer & reader
**************
Group: Металариец
Posts: 10,442
Releases: 225
From: Moscow
On Forums: 15 years 2 months
Thanks: 12859 time(s)
Russian Federation


(IMG:http://metalarea.org/images/audiocovers/2022_May/acov_tid364821_thumb.jpg)

*Artist: Battle Symphony
*Album: War On Earth
*Year: 2022
*Genre: Symphonic Heavy/Power Metal
*Country: Greece (IMG:http://metalarea.org/forum/style_images/flags/Greece.png)
*Format: mp3@CBR320kbps
*Size: 168MB

Tracklist:
01. Fire on Earth 05:20
02. Hail Mankind, Hail! 07:40
03. Soul Survivors 05:05
04. Genocide 04:27
05. Power and Glory 05:00
06. The Final Chance 06:10
07. One-Eyed Jack 05:25
08. Sacrifice 05:44
09. Darling 02:41
10. One Day 03:31
11. The Battle Symphony 12:54
12. Los Guerreros (Bonus Track) 05:09
******************************
Total playing time: 1:09:06



(IMG:http://metalarea.org/images/youtube.png)

Extended info
Battle Symphony - это метал-оперный проект, созданный греческим журналистом и писателем Никосом Цунисом. В симфо-метал-проекте приняли участие различные вокалисты и музыканты, среди которых Николас Лептос (Arrayan Path, ex - Warlord), Тасос Лазарис (Fortress Under Siege), Ди Теодору (Illusory), Григорис Гиарелис (Badd Kharma), Джордж Холливелл (Fortis Ventus) и Кэти Джонсон.
Музыка Battle Symphony - это чистый хэви-метал в сочетании с такими жанрами, как фолк и классическая музыка.
Их дебютный концептуальный альбом представляет научно-фантастическую историю конфликта между повстанческой человеческой армией против инопланетных обитателей планеты Земля.


Technical info
(IMG:http://metalarea.org/images/spectrogram/2022_May/d21d6330189a031d64dd0b267bfdf675.png)
Input File: 05 - Power and Glory.mp3
Channels : 2
Sample Rate : 44100
Precision : 16-bit
Duration : 00:00:59.90 = 2641678 samples = 4492.65 CDDA sectors
File Size : 2.77M
Bit Rate : 369k
Sample Encoding: MPEG audio (layer I, II or III)
Comments :
Title=Power and Glory
Artist=Battle Symphony
Album=War on Earth
Tracknumber=05
Year=2022
Genre=Symphonic Heavy Power Metal



Register


Go to the top of the page
  Insert nick Quick quote
+Quote Post
 
Start new topic
Replies (1 - 2)
post May 15 2022, 13:38:57
Post #2

hearer & reader
**************
Group: Металариец
Posts: 10,442
Releases: 225
From: Moscow
On Forums: 15 years 2 months
Thanks: 12859 time(s)
Russian Federation


Register


Thanks:
Go to the top of the page
  Insert nick Quick quote
+Quote Post
post May 15 2022, 21:42:42
Post #3

Мегаманьяк
***********
Group: Металариец
Posts: 1,637
Releases: 0
From: Russian Federation - St.Petersburg
On Forums: 13 years 8 months
Thanks: 463 time(s)
Russian Federation


М-да, поют здесь действительно здорово! (IMG:style_emoticons/default/20.gif)
Go to the top of the page
  Insert nick Quick quote
+Quote Post

Reply to this topicStart new topic
2 User(s) are reading this topic (2 Guests and 0 Anonymous Users)
0 Members:

 



- Lo-Fi Version Support form
Copyrights and abuse reports form
Time is now: 30th November 2022 - 07:53:33