Welcome Guest ( Log In | Register )

> Releases Upload / Добавление релизов

Добавить релиз тут / Click here to add release
Рекомендованные обменники / Recommended file shares

 
Reply to this topicStart new topic
> Corpus Necromanthum - Necrodemon [ep] (2020), Death/Black Metal
post May 15 2022, 12:35:38
Post #1

н е д е л и м о е
***********
Group: Металариец
Posts: 1,524
Releases: 137
On Forums: 10 years 8 months
Thanks: 2973 time(s)
Russian Federation


(IMG:http://metalarea.org/images/audiocovers/2022_May/acov_tid364823_thumb.jpg)

*Artist: Corpus Necromanthum
*Album: Necrodemon [ep]
*Year: 2020
*Genre: Death/Black Metal
*Country: Costa Rica (IMG:http://metalarea.org/forum/style_images/flags/Costa%20Rica.png)
*Format: mp3@CBR320kbps
*Size: 32MB

Tracklist:
1. (Intro) Abysmal Downward Commandment (Passage Into Set's Temple) 00:57
2. Los Infernales Caminos De Leviathan 04:09
3. The Taste Of Her Slow Death 04:31
4. The Necrodemon Manifest 04:29
******************************
Total playing time: 14:06



Technical info
(IMG:http://metalarea.org/images/spectrogram/2022_May/44c8284d154f29ad9f77d88f51f74fea.png)
Input File: 02 - Los Infernales Caminos De Leviathan.mp3
Channels : 2
Sample Rate : 44100
Precision : 16-bit
Duration : 00:04:09.90 = 11020634 samples = 18742.6 CDDA sectors
File Size : 10.0M
Bit Rate : 320k
Sample Encoding: MPEG audio (layer I, II or III)



Register


Go to the top of the page
  Insert nick Quick quote
+Quote Post

Reply to this topicStart new topic
1 User(s) are reading this topic (1 Guests and 0 Anonymous Users)
0 Members:

 



- Lo-Fi Version Support form
Copyrights and abuse reports form
Time is now: 5th July 2022 - 07:20:49