Welcome Guest ( Log In | Register )

> Releases Upload / Добавление релизов

Добавить релиз тут / Click here to add release
Рекомендованные обменники / Recommended file shares

 
Reply to this topicStart new topic
> Romulox - The Three Kings (2022), Heavy Metal
post May 15 2022, 14:17:51
Post #1

Правь статус, ####!111
**************
Group: Металариец
Posts: 29,651
Releases: 21800
From: Г.Харьков
On Forums: 10 years 1 month
Thanks: 451614 time(s)
Unknown


(IMG:https://metalarea.org/images/audiocovers/2022_May/acov_tid364827_thumb.jpg)

*Artist: Romulox
*Album: The Three Kings
*Year: 2022
*Genre: Heavy Metal
*Country: United States (IMG:https://metalarea.org/forum/style_images/flags/United%20States.png)
*Format: mp3@CBR320kbps
*Size: 68MB

Tracklist:
1. Samsara
2. Howling Hellion
3. Odin's Revenge
4. Traitor's Gate
5. The Fall of Gomek
6. The Rise of Maximo
7. Thunder Panther
8. The Three Kings
******************************
Total playing time: 30:00




Extended info
Jaron Clark Bass (2021-present), Vocals (2021-present)
See also: Hailshot
Matt Reish Guitars (2021-present)
See also: Hailshot, Mobile Deathcamp


Technical info
(IMG:https://metalarea.org/images/spectrogram/2022_May/cb510f011e2d966f06765777fba0a0ad.png)
Input File: 08 - The Three Kings.mp3
Channels : 2
Sample Rate : 44100
Precision : 16-bit
Duration : 00:04:57.63 = 13125571 samples = 22322.4 CDDA sectors
File Size : 11.9M
Bit Rate : 320k
Sample Encoding: MPEG audio (layer I, II or III)
Comments :
Title=The Three Kings
Artist=Romulox
Album=The Three Kings
Tracknumber=8
Year=2022



Register


Go to the top of the page
  Insert nick Quick quote
+Quote Post

Reply to this topicStart new topic
1 User(s) are reading this topic (1 Guests and 0 Anonymous Users)
0 Members:

 



- Lo-Fi Version Support form
Copyrights and abuse reports form
Time is now: 1st July 2022 - 05:46:50