Welcome Guest ( Log In | Register )

> Mourning By Morning - A Step Away From Light; A Step Into Abyss (2022), Atmospheric Black Metal
post May 15 2022, 16:28:31
Post #1

Правь статус, ####!111
**************
Group: Металариец
Posts: 30,923
Releases: 22794
From: Г.Харьков
On Forums: 10 years 6 months
Thanks: 477007 time(s)
Unknown


(IMG:https://metalarea.org/images/audiocovers/2022_May/acov_tid364835_thumb.jpg)

*Artist: Mourning By Morning
*Album: A Step Away From Light; A Step Into Abyss
*Year: 2022
*Genre: Atmospheric Black Metal
*Country: United States (IMG:https://metalarea.org/forum/style_images/flags/United%20States.png)
*Format: mp3@CBR320kbps
*Size: 105MB

Tracklist:
1. A Step Away from Light 05:20
2. Bastard Sanctuary 05:39
3. I Am but a Shadow Beneath You 08:24
4. Onward to My Descent 05:14
5. As I Bleed 01:43
6. The Night Is Fleeting 07:14
7. Beyond the Gates 06:30
8. A Step into Abyss 05:42
******************************
Total playing time: 45:46





Extended info
Sörjande Everything (2017-present)
See also: Frog Mallet, ex-EmptyLife


Technical info
(IMG:https://metalarea.org/images/spectrogram/2022_May/7a2c66b047b4a321f06d6f31e5746a9e.png)
Input File: 07 - Beyond The Gates.mp3
Channels : 2
Sample Rate : 44100
Precision : 16-bit
Duration : 00:06:30.45 = 17218845 samples = 29283.8 CDDA sectors
File Size : 15.6M
Bit Rate : 320k
Sample Encoding: MPEG audio (layer I, II or III)
Comments :
Title=Beyond The Gates
Artist=Mourning by Morning
Album=A Step Away From Light A Step Into Abyss
Tracknumber=7
Year=2022



Register


Go to the top of the page
  Insert nick Quick quote
+Quote Post
 
Start new topic
Replies (1 - 5)
post May 15 2022, 20:47:39
Post #2

Семь Литров
*******
Group: Металариец
Posts: 745
Releases: 0
From: Vilnius
On Forums: 15 years 9 months
Thanks: 267 time(s)
Lithuania


Предыдущий был зело как хорош (при том что я не фэн атмосферика)-надеюсь и этот порадует


Thanks:
(1) isvili,
Go to the top of the page
  Insert nick Quick quote
+Quote Post
post May 21 2022, 19:55:08
Post #3

Четыре Литра
****
Group: Металариец
Posts: 373
Releases: 0
From: TheМля
On Forums: 16 years 2 months
Thanks: 128 time(s)
Belarus


Альбом скучен и вполне себе стандартен.


Thanks:
(1) sabr,
Go to the top of the page
  Insert nick Quick quote
+Quote Post
post May 21 2022, 20:05:49
Post #4

Семь Литров
*******
Group: Металариец
Posts: 745
Releases: 0
From: Vilnius
On Forums: 15 years 9 months
Thanks: 267 time(s)
Lithuania


Соглашусь-разочарован, ваапще ничего не осталось-как будто воздух выкачали, никакой энергетики ):
Go to the top of the page
  Insert nick Quick quote
+Quote Post
post May 21 2022, 20:56:58
Post #5

Группа: esoteric V.I.P
**************
Group: Металариец
Posts: 2,554
Releases: 0
From: Культград
On Forums: 8 years 4 months
Thanks: 1150 time(s)
Germany


Шикарнейшая работа.
Прог пост-блек металл.
Чтобы не писать долго - Симфо-атмосферик/мелодик-пост-блек с техникал элементами, и не традиционными ходами и выходами...
И еще про символизм. Там где есть слово Mourning , не бывает плохих групп, альбомов, песен.
Go to the top of the page
  Insert nick Quick quote
+Quote Post
post Jul 13 2022, 13:35:57
Post #6

Common dweller of hell
**************
Group: Металариец
Posts: 4,497
Releases: 12
From: Dnipro
On Forums: 14 years 4 months
Thanks: 1781 time(s)
Ukraine


Альбом просто великолепен, угар!!!!!
Go to the top of the page
  Insert nick Quick quote
+Quote Post

Reply to this topicStart new topic
2 User(s) are reading this topic (2 Guests and 0 Anonymous Users)
0 Members:

 



- Lo-Fi Version Support form
Copyrights and abuse reports form
Time is now: 3rd December 2022 - 16:05:10