Welcome Guest ( Log In | Register )

 
Reply to this topicStart new topic
> Putrido & DxHxNx - Putrido/DxHxNx [split] (2022), Goregrind | Goregrind (D13)
post May 16 2022, 16:05:39
Post #1

Serial Uploader
Group Icon
Group: V.I.P
Posts: 38,720
Releases: 36861
From: Lithuania
On Forums: 14 years 2 months
Thanks: 458349 time(s)
Lithuania


(IMG:https://metalarea.org/images/audiocovers/2022_May/acov_tid364851_thumb.jpg)

*Artist: Putrido & DxHxNx
*Album: Putrido/DxHxNx [split]
*Year: 2022
*Genre: Goregrind | Goregrind
*Country: Chile (IMG:https://metalarea.org/forum/style_images/flags/Chile.png) | Mexico (IMG:https://metalarea.org/forum/style_images/flags/Mexico.png)
*Format: mp3@CBR320kbps
*Size: 24MB

Tracklist:
Putrido:
1. Devorado Por Gusanos 01:47
2. Profanador De Sepulcros 01:06
3. Retorno Sobrenatural 01:14
4. Rastros De La Muerte 01:01
DxHxNx:
5. El Ataud De El Conde Lavud 05:05
******************************
Total playing time: 10:13





Technical info
(IMG:https://metalarea.org/images/spectrogram/2022_May/b833e4fdd878958481ae2b88f8cc5153.png)
Input File: 02. Profanador de Sepulcros.mp3
Channels : 2
Sample Rate : 44100
Precision : 16-bit
Duration : 00:01:06.59 = 2936575 samples = 4994.18 CDDA sectors
File Size : 2.82M
Bit Rate : 339k
Sample Encoding: MPEG audio (layer I, II or III)
Comments :
Title=Profanador de Sepulcros
Artist=Putrido
Album=Split con DxHxNx
Tracknumber=2
Year=2022



Register


Go to the top of the page
  Insert nick Quick quote
+Quote Post

Reply to this topicStart new topic
1 User(s) are reading this topic (1 Guests and 0 Anonymous Users)
0 Members:

 



- Lo-Fi Version Support form
Copyrights and abuse reports form
Time is now: 11th August 2022 - 07:07:36