Welcome Guest ( Log In | Register )

 
Reply to this topicStart new topic
> Disgorgement Of Intestinal Lymphatic Suppuration - Axe Maniac Cult (2020), Goregrind (D6)
post May 16 2022, 16:19:36
Post #1

Serial Uploader
Group Icon
Group: V.I.P
Posts: 38,932
Releases: 37068
From: Lithuania
On Forums: 14 years 3 months
Thanks: 463016 time(s)
Lithuania


(IMG:https://metalarea.org/images/audiocovers/2022_May/acov_tid364852_thumb.jpg)

*Artist: Disgorgement Of Intestinal Lymphatic Suppuration
*Album: Axe Maniac Cult
*Year: 2020
*Genre: Goregrind
*Country: France (IMG:https://metalarea.org/forum/style_images/flags/France.png)
*Format: mp3@CBR320kbps
*Size: 66MB

Tracklist:
1. Axe Maniac Cult 02:06
2. Art Of The Macabre 01:10
3. Orgy Of Mass Dismemberment 01:12
4. Facial Split 01:06
5. One Shot Decapitation 01:14
6. Screams Of Inhumanity 01:00
7. Cut The Bone 01:26
8. Uncontrolled Decimation 01:30
9. Faces Of The Dead 00:55
10. Addicted To The Grotesque 01:46
11. Bloodsoaked Rust 01:47
12. Skull Penetration 01:10
13. Feasting With The Insane 02:03
14. Savage Body Separation 01:41
15. Axe Commando 01:33
16. Order Of Maximum Killing 01:31
17. Rolling Heads 01:37
18. Melted Anatomies 01:34
19. Towers Of Headless Cadavers 01:13
20. Worship The Axe!! 01:03
******************************
Total playing time: 28:37

(IMG:https://metalarea.org/images/myspace.png)



(IMG:https://metalarea.org/images/youtube.png)

Extended info
Exclusive for Metalarea.org


Technical info
(IMG:https://metalarea.org/images/spectrogram/2022_May/fa968b2d58c7868095b150bb83dd8ace.png)
Input File: 02. Art Of The Macabre.mp3
Channels : 2
Sample Rate : 44100
Precision : 16-bit
Duration : 00:01:10.43 = 3105963 samples = 5282.25 CDDA sectors
File Size : 2.88M
Bit Rate : 327k
Sample Encoding: MPEG audio (layer I, II or III)
Comments :
Title=Art Of The Macabre
Artist=Disgorgement of Intestinal Lymphatic Suppuration
Album=Axe Maniac Cult
Tracknumber=1
Year=2020



Register


Go to the top of the page
  Insert nick Quick quote
+Quote Post

Reply to this topicStart new topic
1 User(s) are reading this topic (1 Guests and 0 Anonymous Users)
0 Members:

 



- Lo-Fi Version Support form
Copyrights and abuse reports form
Time is now: 25th September 2022 - 11:27:25